Умник / Cleverman [S01] (2016) HDTVRip | ColdFilm


СКАЧАТЬ TORRENT ФАЙЛ

Умник / Cleverman

Страна: Австралия

Новая Зеландия

Производство: Goalpost Pictures, Pukeko Pictures
Год выпуска: 2016
Жанр: фантастика
Сезон: 1
Серии: 1-6 (из 6)
Продолжительность: х ~00:48:00

Режиссеры: Уэйн Блэр, Леа Пурселл
Авторы сценария: Джейн Аллен, Джон Белл, Джонатан Гэвин

В ролях: Тисан Тоуни, Хантер Пейдж-Лошар, Роб Коллинз, Дебора Мэйлман, Райан Корр, Тасма Уолтон, Джада Альбертс, Джек Чарльз, Рондда Финдлтон

Описание: Сюжет сериала показывает довольно мрачное будущее. Загадочные создания из страниц книжных мифов проникли в наш реальный мир, и покорили его себе. Теперь люди объединяются в группу и вынуждены искать убежище для того, что бы защититься от врага. Главные герои два брата, которые уже очень давно практически не общаются и являются врагами, но общее горе заставляет их объединиться…

Перевод: Любительский (двухголосый, закадровый) | КОЛДФИЛЬМ
Субтитры: нет

Качество: HDTVRip
Формат: AVI
Видео кодек: XviD
Аудио кодек: МР3
Видео: 720×400 (16:9), 30.000 fps, XviD ~835 kbps avg
Аудио: 48.0 kHz, MPEG Layer 3, 2 ch, ~128.00 kbps avg

Дата премьеры (мир): 2 июня 2016

ПРИМЕЧАНИЕ: ПРИСУТСТВУЕТ РЕКЛАМА!

Media InfoGeneral
Format : AVI
Format/Info : Audio Video Interleave
Overall bit rate : 978 Kbps
Writing application : Lavf57.25.100

Video
ID : 0
Format : xvid
Codec ID : xvid
Bit rate : 835 Kbps
Width : 720 pixels
Height : 400 pixels
Display aspect ratio : 16:9
Frame rate : 30.000 fps
Bits/(Pixel*Frame) : 0.097
Stream size : 6.62 MiB (85%)

Audio
ID : 1
Format : MPEG Audio
Format version : Version 1
Format profile : Layer 3
Mode : Joint stereo
Mode extension : MS Stereo
Codec ID : 55
Codec ID/Hint : MP3
Bit rate mode : Constant
Bit rate : 128 Kbps
Channel(s) : 2 channels
Sampling rate : 48.0 KHz
Compression mode : Lossy
Stream size : 1.01 MiB (13%)
Alignment : Aligned on interleaves
Interleave, duration : 24 ms (0.72 video frame)
Interleave, preload duration : 24 ms
Скриншоты


April 2020
M T W T F S S
 12345
6789101112
13141516171819
20212223242526
27282930