Побег за мечтой (2015) WEB-DLRip-AVC от New-Team


СКАЧАТЬ TORRENT ФАЙЛ

Побег за мечтой

Страна: Россия
Жанр: криминал, драма
Год выпуска: 2015
Продолжительность: 01:15:46

Перевод: Не требуется
Cубтитры: нет
Оригинальная аудиодорожка: русский

Режиссер: Константин Тищенко , Юрий Сысоев , Владимир Мистюков

В ролях: Владимир Вдовиченков, Мирослава Карпович, Андрей Чадов, Денис Косяков, Антон Буглак, Александр Кононец, Прохор Чеховской, Александр Фурсенко, Зоя Кайдановская, Алексей Фатеев, Константин Константинов

Описание:
Три истории о трех разных мужчинах. Молодой писатель без книги, но со смертью под боком. Врач с принципиальной позицией и непониманием среди окружающих. И адвокат, считающий, что от всего можно откупиться. Всех троих испытает судьба, и ни один из них не останется прежним…

Релиз:

Автор рипа: stalkerok

Сэмпл

Качество видео: WEB-DLRip-AVC [WEB-DL / 1080p]
Формат видео: MKV
Видео кодек: AVC
Аудио кодек: AC3
Видео: 2398 Кбит/сек, 1152×622 (1.852), 25 кадр/сек, AVC
Аудио: русский, 192 Кбит/сек, 48 КГц, 16 бит, 2.0, AC3

MediaInfo
Общее
Уникальный идентификатор : 179923983028995939061896606662792968561 (0x875C1941F8B96AA6BF52DA94C1B9F971)
Полное имя : M:1WEB-DLPobeg za mechtojПобег за мечтой.2015.WEB-DLRip-AVC.1.37Gb.stalkerok.new-team.mkv
Формат : Matroska
Версия формата : Version 4 / Version 2
Размер файла : 1,37 Гбайт
Продолжительность : 1 ч. 15 м.
Общий поток : 2592 Кбит/сек
Название фильма : Побег за мечтой (2015) (New-Team) (Rip by stalkerok)
Дата кодирования : UTC 2016-05-22 12:45:23
Программа кодирования : mkvmerge v8.6.1 ('Flying') 64bit
Библиотека кодирования : libebml v1.3.3 + libmatroska v1.4.4

Видео
Идентификатор : 1
Формат : AVC
Формат/Информация : Advanced Video Codec
Профиль формата : High@L4.1
Параметр CABAC формата : Да
Параметр ReFrames формата : 11 кадров
Идентификатор кодека : V_MPEG4/ISO/AVC
Продолжительность : 1 ч. 15 м.
Битрейт : 2398 Кбит/сек
Ширина : 1152 пикселя
Высота : 622 пикселя
Соотношение сторон : 1,85:1
Соотношение сторон в оригинале : 1,85:1
Режим частоты кадров : Постоянный
Частота кадров : 25,000 кадров/сек
Цветовое пространство : YUV
Субдискретизация насыщенности : 4:2:0
Битовая глубина : 8 бит
Тип развёртки : Прогрессивная
Бит/(Пиксели*Кадры) : 0.134
Размер потока : 1,27 Гбайт (93%)
Заголовок : Побег за мечтой (2015) (New-Team) (Rip by stalkerok)
Библиотека кодирования : x264 core 148 r2665kMod a01e339
Настройки программы : cabac=1 / ref=11 / deblock=1:-3:-2 / analyse=0x3:0x133 / me=umh / subme=10 / psy=1 / fade_compensate=0.00 / psy_rd=1.00:0.00 / mixed_ref=1 / me_range=32 / chroma_me=1 / trellis=2 / 8x8dct=1 / cqm=0 / deadzone=21,11 / fast_pskip=0 / chroma_qp_offset=-2 / threads=12 / lookahead_threads=3 / sliced_threads=0 / nr=0 / decimate=0 / interlaced=0 / bluray_compat=0 / constrained_intra=0 / fgo=0 / bframes=14 / b_pyramid=2 / b_adapt=2 / b_bias=0 / direct=3 / weightb=1 / open_gop=0 / weightp=2 / keyint=250 / keyint_min=25 / scenecut=40 / intra_refresh=0 / rc_lookahead=60 / rc=2pass / mbtree=0 / bitrate=2398 / ratetol=1.0 / qcomp=0.65 / qpmin=0 / qpmax=69 / qpstep=4 / cplxblur=20.0 / qblur=0.5 / vbv_maxrate=50000 / vbv_bufsize=62500 / nal_hrd=none / filler=0 / ip_ratio=1.40 / pb_ratio=1.30 / aq=1:0.85
Default : Да
Forced : Нет

Аудио
Идентификатор : 2
Формат : AC-3
Формат/Информация : Audio Coding 3
Расширение режима : CM (complete main)
Параметр Endianness формата : Big
Идентификатор кодека : A_AC3
Продолжительность : 1 ч. 15 м.
Вид битрейта : Постоянный
Битрейт : 192 Кбит/сек
Каналы : 2 канала
Расположение каналов : Front: L R
Частота : 48,0 КГц
Частота кадров : 31,250 кадров/сек (1536 spf)
Метод сжатия : С потерями
Размер потока : 104 Мбайт (7%)
Язык : Russian
Default : Да
Forced : Нет



April 2020
M T W T F S S
 12345
6789101112
13141516171819
20212223242526
27282930