Маленький принц / The Little Prince (2015) BDRip | D | Лицензия


СКАЧАТЬ TORRENT ФАЙЛ

«Rediscover one of the most beloved stories of all time»

Информация о фильме
Название: Маленький принц
Оригинальное название: The Little Prince
Год выхода: 2015
Жанр: Мультфильм, фэнтези
Режиссер: Марк Осборн
Роли озвучивали:: Рэйчел МакАдамс, Пол Радд, Джеймс Франко, Марион Котийяр, Бенисио Дель Торо, Маккензи Фой, Джефф Бриджес, Венсан Кассель, Пол Джаматти, Рики Джервэйс
Роли дублировали: Сергей Гармаш, Екатерина Климова, Александр Олешко, Чулпан Хаматова, Константин Хабенский, Игорь Костолевский, Андрей Леонов

О фильме:
Мир невозможен без фантазии и приключений. По крайней мере в это верит добродушный старик авиатор, по соседству с которым недавно поселилась одна очень педантичная мама со своей прилежной дочкой. Жизнь девочки подчинена строгому учебному плану, в котором время на друзей предусмотрено только следующим летом. Однако этот тщательно выстроенный план трещит по швам, когда в жизнь девочки врывается странный сосед с его невероятными рассказами о Маленьком Принце и далеких звездах. Осталось только починить самолет, и в путь! Так начинается большое путешествие девочки — полное опасностей, волшебства, юмора и настоящей дружбы.

Страна: Франция, Канада
Студия: Paramount Animation
Продолжительность: 01:46:28
Перевод: Профессиональный (полное дублирование)[BD RUS]

Файл
Качество: BDRip (исх. The.Little.Prince.2015.1080p.BluRay.AVC)
Кодек: XviD
Видео: 720×304 (2,35:1), 24 fps, Xvid ~1506 kbps avg, 0.287 bit/pixel
Звук: 48 kHz, AC3, 6 ch, ~448.00 kbps avg | русский | Профессиональный (полное дублирование)[BD RUS]
Субтитры: Отсутствуют

Семпл

Инфо-файлОбщее
Полное имя : D:TorrentsЗавершенныеLittle Prince.2015.D.BDRip.avi
Формат : AVI
Формат/Информация : Audio Video Interleave
Размер файла : 1,46 Гбайт
Продолжительность : 1 ч. 46 м.
Общий поток : 1964 Кбит/сек
Название фильма : Little Prince.2015.D.BDRip
Режиссёр : stillet
Формат оригинала/Распространитель : Dub | DD 5.1 @ 448 kbps – Blu Rya RUS
Программа кодирования : VirtualDubMod 1.5.10.3 (build 2550/release)
Библиотека кодирования : VirtualDub build 35491/release

Видео
Идентификатор : 0
Формат : MPEG-4 Visual
Профиль формата : Advanced Simple@L5
Параметр BVOP формата : 2
Параметр QPel формата : Нет
Параметр GMC формата : Без точки перехода
Параметр матрицы формата : Выборочная
Идентификатор кодека : XVID
Идентификатор кодека/Подсказка : XviD
Продолжительность : 1 ч. 46 м.
Битрейт : 1506 Кбит/сек
Ширина : 720 пикселей
Высота : 304 пикселя
Соотношение сторон : 2,35:1
Частота кадров : 24,000 кадра/сек
Частота кадров в оригинале : 23,976 (24000/1001) кадра/сек
Цветовое пространство : YUV
Субдискретизация насыщенности : 4:2:0
Битовая глубина : 8 бит
Тип развёртки : Прогрессивная
Метод сжатия : С потерями
Бит/(Пиксели*Кадры) : 0.287
Размер потока : 1,12 Гбайт (77%)
Библиотека кодирования : XviD 73

Аудио
Идентификатор : 1
Формат : AC-3
Формат/Информация : Audio Coding 3
Идентификатор кодека : 2000
Продолжительность : 1 ч. 46 м.
Вид битрейта : Постоянный
Битрейт : 448 Кбит/сек
Каналы : 6 каналов
Частота : 48,0 КГц
Метод сжатия : С потерями
Размер потока : 341 Мбайт (23%)
Выравнивание : Разделение по промежуткам
Продолжительность промежутка : 42 мс. (1,00 видеокадр)
Время предзагрузки промежутка : 500 мс.Скриншоты


April 2020
M T W T F S S
 12345
6789101112
13141516171819
20212223242526
27282930