Лунтик и его друзья [01-08×1-458, 461 из 479] (2006-2016) WEBRip от ExKinoRay


СКАЧАТЬ TORRENT ФАЙЛ

Информация о фильме
Название: Лунтик и его друзья
Год выпуска: 2006-2016
Страна: Россия, студия Мельница
Жанр: мультфильм, детский, комедия, приключения, семейный
Продолжительность: 459 х ~ 00:04:52
Перевод: Не требуется
Русские субтитры: нет

Режиссёры: Дарина Шмидт, Екатерина Салабай, Екатерина Шрага

Роли озвучивали: Михаил Черняк, Екатерина Гороховская, Елена Шульман, Наталья Данилова, Юлия Рудина, Елена Соловьева, Анатолий Петров, Олег Куликович, Константин Бронзит, Светлана Письмиченко

Описание: Лунтик — главный герой мультфильма, загадочный малыш, родившийся на Луне и попавший на Землю. На Земле Лунтик нашел друзей: кузнечика Кузю, божью коровку Милу и Пчелёнка. От природы добрый и общительный, лунный малыш становится всеобщем любимцем обитателей поляны, на которой он волею судеб оказался. Особенно тепло к Лунтику относятся пожилые бездетные супруги шершни, которые стали его опекунами и называют своим внуком.

Доп. информация: Это WEB-версия, широкоформатная (16:9), выходные титры всего 8 секунд.

Семпл / Список серий (459) / Приключения Лунтика и его друзей
ЗЫ: В версии с DVD (4:3) выходные титры были 55 секунд.

Файл:
Формат: AVI
Качество: WEBRip 400p (wide)
Видео: 704×400 (1.76:1), 25 fps, XviD build 50 ~801 kbps avg, 0.11 bit/pixel
Аудио: 48 kHz, AC3 Dolby Digital, 2/0 (L,R) ch, ~192.00 kbps avg
Субтитры: отсутствуют

MI
008. Пиявка. -merci-.avi
Format : AVI
Format/Info : Audio Video Interleave
File size : 35.0 MiB
Duration : 4mn 52s
Overall bit rate : 1 003 Kbps
Writing application : VirtualDubMod 1.5.10.3 | www.virtualdub-fr.org || (build 2550/release)
Writing library : VirtualDubMod build 2550/release

Video
ID : 0
Format : MPEG-4 Visual
Format profile : Advanced Simple@L5
Format settings, BVOP : 1
Format settings, QPel : No
Format settings, GMC : No warppoints
Format settings, Matrix : Default (H.263)
Codec ID : XVID
Codec ID/Hint : XviD
Duration : 4mn 52s
Bit rate : 801 Kbps
Width : 704 pixels
Height : 400 pixels
Display aspect ratio : 16:9
Frame rate : 25.000 fps
Color space : YUV
Chroma subsampling : 4:2:0
Bit depth : 8 bits
Scan type : Progressive
Compression mode : Lossy
Bits/(Pixel*Frame) : 0.114
Stream size : 27.9 MiB (80%)
Writing library : XviD 1.2.1 (UTC 2008-12-04)

Audio
ID : 1
Format : AC-3
Format/Info : Audio Coding 3
Mode extension : CM (complete main)
Format settings, Endianness : Big
Codec ID : 2000
Duration : 4mn 52s
Bit rate mode : Constant
Bit rate : 192 Kbps
Channel(s) : 2 channels
Channel positions : Front: L R
Sampling rate : 48.0 KHz
Frame rate : 31.250 fps (1536 spf)
Compression mode : Lossy
Stream size : 6.69 MiB (19%)
Alignment : Split accross interleaves
Interleave, duration : 40 ms (1.00 video frame)
Interleave, preload duratio : 500 ms
Скриншоты

Добавил эпизоды:
+ 455 – 11.04.2016
+ 453 – 25.04.2016
+ 457 – 16.05.2016
+ 458 – 24.05.2016
+ 461 – 09.06.2016

Автор релиза: -merci-



April 2020
M T W T F S S
 12345
6789101112
13141516171819
20212223242526
27282930