Tag: Мелодрама


Дана Абызова станет «опасной свидетельницей» убийства

02/09/2019

Киноиндустрия

Comments Off on Дана Абызова станет «опасной свидетельницей» убийства


В Киеве начались съемки 24-серийной картины «На твоей стороне» по турецкому формату канала «D» «Цена страсти», сообщает пресс-служба канала «Украина», по заказу которого создается сериал.


фото: Пресс-служба телеканала "Украина"

Главная героиня – нейрохирург Read More »


Ты мой свет (2017) HDTVRip от ExKinoRay

18/12/2018

Наши фильмы

Comments Off on Ты мой свет (2017) HDTVRip от ExKinoRay


СКАЧАТЬ TORRENT ФАЙЛ

Информация о фильме
Название: Ты мой свет
Год выхода: 2017
Жанр: Мелодрама
Режиссер: Эдуард Пальмов
В ролях: Мария Глазкова, Никита Зверев, Дмитрий Егоров, Ольга Дятловская, Ольга Рептух

О фильме:
В день серебряной свадьбы муж внезапно сообщает Наталье (Мария Глазкова), что уходит от нее. Двадцать пять лет жизни в браке перечеркнуты. Жизнь разрушена и даже любимая работа в цветочном магазине не спасает от уныния, да еще бесцеремонный клиент изводит ее своими придирками. Но Наталья заставляет себя не обращать внимания на трудности и жить дальше ради сына, который собрался жениться. Она едет на помолвку и в отце невесты Егоре (Никита Зверев) с удивлением узнает того самого клиента. Ради детей Наталья и Егор скрывают взаимную неприязнь, но помолвка неожиданно срывается. Серьезные проблемы, возникшие у детей, вынуждают героев действовать сообща. Помогая Егору, Наталья смотрит на него другими глазами. А Егор, давно не пускающий никого к себе в душу, вдруг понимает, что в его жизни наконец-то забрезжил свет… Но к Наталье возвращается муж…


Страна: Выпущено: Россия, «Паламеда Продакшн», Фабула Продакшн
Продолжительность: 01:30:40
Перевод: Язык: Русский

Файл
Кодек: XviD
Качество: HDTVRip
Видео: 656×368 (1.78:1), 25 fps, XviD build 73 ~1012 kbps avg, 0.17 bit/pixel
Звук: 48 kHz, MP3, 2 ch, ~128.00 kbps avg
Субтитры: Отсутствуют

Скриншоты

Рип изготовил:


Чужая кровь [01-10 из 20] (2018) HDTVRip-AVC от Files-x

18/12/2018

Сериалы

Comments Off on Чужая кровь [01-10 из 20] (2018) HDTVRip-AVC от Files-x


СКАЧАТЬ TORRENT ФАЙЛ

Информация о фильме
Оригинальное название: Чужая кровь
Год выпуска: 2018
Жанр: Мелодрама
Режиссер: Ольга Субботина
В ролях: Карина Андоленко, Павел Баршак, Дарья Мороз, Виктор Добронравов, Артём Ткаченко, Лаура Кеосаян, Анна Здор, Людмила Чурсина, Екатерина Кузнецова (II), Роман Полянский, Александра Бортич, Антон Соколов (II), Анна Капалева, Маргарита Толстоганова, Андрей Фомин (II), Николай Козак, Илья Ильин, Виктор Тереля, Никита Тезин, Сергей Мухин, Дмитрий Орлов (III), Антон Непомнящий, Ия Нинидзе, Тамара Череповская, Михаил Жигалов, Стас Шмелев, Святослав Осипов, Григорий Данцигер, Зураб Миминошвили, Наталия Моргунова (II), Марина Кондратьева (II), Александр Андриенко, Владимир Скворцов

О фильме:
Драматическая семейная сага, разворачивающаяся на протяжении нескольких десятилетий. В основе сюжета – история благополучной семьи Горбатовых: партийного работника Бориса и его жены – русской красавицы Зины. Однако за респектабельным фасадом бушуют сокрушительные страсти. Ревность, измены, отчуждение, разводы вторгаются в отношения близких людей на протяжении сорока лет. И только настоящая любовь сможет разрушить родовое проклятие и сделать чужих детей родными….

Страна: Россия
Студия: Профит
Продолжительность: 10 х ~ 00:45:00

Файл
Кодек: h.264
Качество: HDTVRip-AVC
Видео: MPEG-4 AVC, ~ 2000 Кбит/с, 1024×576, 25 кадр/с
Аудио: AC3, 2 ch, 192 Кбит/с
Язык: Русский

Скриншоты



Чужая кровь [01-10 из 20] (2018) HDTVRip от GeneralFilm

18/12/2018

Сериалы

Comments Off on Чужая кровь [01-10 из 20] (2018) HDTVRip от GeneralFilm


СКАЧАТЬ TORRENT ФАЙЛ

Год выпуска: 2018
Жанр: Мелодрама
Выпущено: Россия, Профит
Режиссер: Ольга Субботина
В ролях: Карина Андоленко, Павел Баршак, Дарья Мороз, Виктор Добронравов, Артём Ткаченко, Лаура Кеосаян, Анна Здор, Людмила Чурсина, Екатерина Кузнецова (II), Роман Полянский, Александра Бортич, Антон Соколов (II), Анна Капалева, Маргарита Толстоганова, Андрей Фомин (II), Николай Козак, Илья Ильин, Виктор Тереля, Никита Тезин, Сергей Мухин, Дмитрий Орлов (III), Антон Непомнящий, Ия Нинидзе, Тамара Череповская, Михаил Жигалов, Стас Шмелев, Святослав Осипов, Григорий Данцигер, Зураб Миминошвили, Наталия Моргунова (II), Марина Кондратьева (II), Александр Андриенко, Владимир Скворцов

О фильме: Драматическая семейная сага, разворачивающаяся на протяжении нескольких десятилетий. В основе сюжета – история благополучной семьи Горбатовых: партийного работника Бориса и его жены – русской красавицы Зины. Однако за респектабельным фасадом бушуют сокрушительные страсти. Ревность, измены, отчуждение, разводы вторгаются в отношения близких людей на протяжении сорока лет. И только настоящая любовь сможет разрушить родовое проклятие и сделать чужих детей родными….

Качество: HDTVRip
Видео: XviD, ~ 1800 Кбит/с, 720×400
Аудио: Русский (AC3, 2 ch, 192 Кбит/с)
Продолжительность: 10 х ~ 00:45:00
Перевод: Не требуется
Субтитры: нет

Скриншоты


MediaInfo
Общее
Полное имя : D:Chuzhaja krov.HDTVRip.GeneralFilm1.Chuzhaja krov.HDTVRip.GeneralFilm.avi
Формат : AVI
Формат/Информация : Audio Video Interleave
Размер файла : 650 Мбайт
Продолжительность : 46 м. 0 с.
Общий поток : 1974 Кбит/сек

Видео
Идентификатор : 0
Формат : MPEG-4 Visual
Профиль формата : Advanced Simple@L5
Параметр BVOP формата : 1
Параметр QPel формата : Нет
Параметр GMC формата : Без точки перехода
Параметр матрицы формата : Выборочная
Идентификатор кодека : XVID
Идентификатор кодека/Подсказка : XviD
Продолжительность : 46 м. 0 с.
Битрейт : 1770 Кбит/сек
Ширина : 720 пикселей
Высота : 400 пикселей
Соотношение сторон : 16:9
Частота кадров : 25,000 кадров/сек
Цветовое пространство : YUV
Субдискретизация насыщенности : 4:2:0
Битовая глубина : 8 бит
Тип развёртки : Прогрессивная
Метод сжатия : С потерями
Бит/(Пиксели*Кадры) : 0.246
Размер потока : 582 Мбайт (90%)
Библиотека кодирования : XviD 1.2.1 (UTC 2008-12-04)

Аудио
Идентификатор : 1
Формат : AC-3
Формат/Информация : Audio Coding 3
Расширение режима : CM (complete main)
Параметр Endianness формата : Big
Идентификатор кодека : 2000
Продолжительность : 46 м. 0 с.
Вид битрейта : Постоянный
Битрейт : 192 Кбит/сек
Каналы : 2 канала
Расположение каналов : Front: L R
Частота : 48,0 КГц
Частота кадров : 31,250 кадров/сек (1536 spf)
Битовая глубина : 16 бит
Метод сжатия : С потерями
Размер потока : 63,2 Мбайт (10%)
Выравнивание : Соединение по промежуткам
Продолжительность промежутка : 32 мс. (0,80 видеокадр)

Внимание! Раздача ведётся путём добавления новых серий
Раздача ведётся путём добавления новых серий, при каждом добавлении создаётся новый торрент. Чтобы начать докачку новой серии, пользователям необходимо сделать следующее:

– Остановить скачивание.
– Удалить старый торрент у себя из клиента (старые серии удалять не надо).
– Скачать новый торрент и запустить его у себя в клиенте вместо старого, при этом указать клиенту путь в старую папку куда и должно происходить скачивание новых серий.

Ваш клиент при этом должен произвести хеширование (проверку) старой папки (если не производит сам – помогите ему сделать это), и будет докачивать только те серии которых у вас ещё нет. Старые серии при этом не удаляются, а продолжают раздаваться!
Если вы уже удалили старые серии, то предотвратить повторную закачку старых серий можно, отжав галочку в соответствующих местах при запуске нового торрента. По возможности, желательно не удалять старые серии как можно дольше, чтобы релизер не столько продолжал раздавать старые серии, а смог сконцентрироваться на новых.

Релиз:


Вячеслав Малежик – ВячесLOVE (2018) MP3

18/12/2018

Музыка

Comments Off on Вячеслав Малежик – ВячесLOVE (2018) MP3


СКАЧАТЬ TORRENT ФАЙЛ

Название: ВячесLOVE
Исполнитель: Вячеслав Малежик
Год: 2018
Жанр: Поп-музыка, Блюз
Страна: Россия

Продолжительность: 00:59:49
Формат/Кодек: MP3
Битрейт аудио: 256 kbps

Трек-лист
01.Лучше поздно, чем никогда
02.Осенний блюз (feat. Олег Завьялов)
03.Вот опять окно
04.Високосный год
05.От моей руки
06.Одни
07.Королева Монтенегро
08.Вновь рыдала “Аврора”
09.Одесская
10.Снежный романс
11.Дым твоей сигареты
12.Сыну
13.Не заладилось (Исполняет Олег Завьялов)
14.На семи ветрах
15.Мелодрама (feat. Олег Завьялов)
16.А рассвет мне играет блюз
17.Может я бы и попал в рай

Дополнительная информацияCD-вариант альбома выпущен ограниченным тиражем и пока не поступит в розничную продажу в магазины и БУДЕТ ПРОДАВАТЬСЯ ТОЛЬКО НА КОНЦЕРТАХ.
Также выпущен MP3-вариант альбома.

До злополучного июня семнадцатого года, когда моя болезнь
поделила жизнь на “до” и “после”, я начинал мастерить свой
очередной CD и был полон творческих идей.
Но, как говорится, “Бог располагает”, и мои жизненные планы
резко изменились…
О том, чтобы закончить альбом, я думал меньше всего. Прошло
полгода, и моё здоровье стало потихоньку возвращаться ко мне и
захотелось закончить начатую работу.

И вот мой CD в ваших руках. Аж 17 треков я презентую Вашему
вниманию и, надеюсь, Вы не сообразите, что написано и записано
“до”, а что “после”. Если так случится, то это будет лучшей
похвалой Господу, врачам и моему упрямству. Спасибо Вам за то, что Вы послушали меня и я почувствовал, что я ещё на плаву.

Я бы хотел поблагодарить моих друзей за помощь в создании этой пластинки.
Особенно хотел отметить Олега Завьялова и Валерия Стурова, которые проявили не только свои незаурядные музыкальные способности, но и были моими поводырями, поддержавшими меня в трудные минуты
моей жизни.
СПАСИБО, друзья.

Пару слов ещё хотел бы сказать об Алексее Тамареве… Он придумывал,
играл на гитаре и жил так, будто записывал свой дебютный альбом.
Благодарствую Вам, Лёша, ВИАшный дух пластинки, в хорошем смысле
этого слова, это твоя заслуга, Браво…”

Ваш Вячеслав Малежик.

В ЗАПИСИ АЛЬБОМА ПРИНИМАЛИ УЧАСТИЕ
МУЗЫКАНТЫ ГРУППЫ “СИНЯЯ ПТИЦА” СЕРГЕЯ ДРОЗДОВА

Олег Завьялов – бас-гитара, акустическая гитара, контрабас, клавишные, бэк-вокал, аранжировки;
Алексей Тамарев – гитары, клавишные;
Дмитрий Соболев – клавишные;
Алексей Скрипченко – духовые;
Геннадий Ряшенцев – ударные;

Валерий Стуров – гитары, клавишные, бэк-вокал, аранжировки;
Вячеслав Малежик – вокал, гитара, аранжировки.

Звукорежиссёры – Олег Завьялов, Валерий Стуров

Альбом записан на студиях Валерия Стурова “Микстура-Студио” и Олега Завьялова в 2017-18 г. г.

Дизайн альбома осуществила Анастасия Сольвейн.

Релиз: 28 ноября 2018 года на CD Land Contact


Год собаки [01-04 из 04] (2018) WEBRip 720p от Files-x

17/12/2018

Сериалы

Comments Off on Год собаки [01-04 из 04] (2018) WEBRip 720p от Files-x


СКАЧАТЬ TORRENT ФАЙЛ

Информация о фильме
Оригинальное название: Год собаки
Год выхода: 2018
Жанр: Мелодрама
Режиссер: Антон Гойда
В ролях: Константин Октябрьский, Дана Абызова, Татьяна Малкова, Антон Батырев, Ксения Николаева, Александр Заднепровский

О фильме:
Саша на много лет забыла о своём красном дипломе юриста, чтобы быть любящей женой и домохозяйкой. Её смысл жизни – муж Костя и их собака Герда. Но мнимое счастье рушится в один день, когда в квартиру приходит незнакомая девица, и муж выставляет Сашу за порог…

Страна: Украина
Студия: “Арт Территория”
Продолжительность: 4 х 00:46:23
Перевод: Не требуется

Файл
Кодек: AVC
Качество: WEBRip 720p
Видео: MPEG-4 AVC, ~ 3000 Кбит/с, 1280х720
Звук: AC3, 2 ch, 192 Кбит/с

Скриншоты




Личные счеты (2018) HDTV 1080i

17/12/2018

Наши фильмы

Comments Off on Личные счеты (2018) HDTV 1080i


СКАЧАТЬ TORRENT ФАЙЛ

Информация о фильме
Оригинальное название: Личные счеты
Год выпуска: 2018
Жанр: Мелодрама
Режиссер: Алина Чеботарёва

В ролях: Ирина Таранник, Михаил Химичев, Александр Никитин, Нина Гогаева, Екатерина Долгова, Анастасия Чепелюк, Татьяна Виноградова, Никита Абдулов

Описание: Жизнь Инны была похожа на сбывшуюся сказку, но случилась трагедия. В автокатастрофе погибают ее родители, и Инна теряет ребенка. Проходит три месяца, но она все еще так и не в силах справиться с депрессией. Перебирая документы, Инна случайно находит свидетельство о рождении девушки, носящей девичью фамилию ее матери. Так Инна узнает, что все это время у нее была сводная сестра – Яна. Теперь она – единственный родной человек. Инна решает разыскать сестру. Но Яна оказывается полной противоположностью воспитанной, образованной и изысканной Инны. Она – грубая и прямолинейная, выросла в деревне с теткой практически в нищете, теперь работает в обычной парикмахерской. А еще Яна до сих пор обижена на мать, которая бросила ее ради отца Инны. Инна надеется искупить вину матери – приглашает сестру в свой дом, одаривает подарками, устраивает на работу в престижный салон красоты. Она даже обещает со временем помочь Яне купить собственный салон… Но энтузиазм Инны не разделяет ее муж Вадим, он предупреждает – в ответ на свою доброту и великодушие, Инна получит от сестры лишь черную неблагодарность… Да и как может быть по-другому, когда на кону – большое наследство?..

Автор релиза: daboen

. Возможно наличие “всплывающих” надписей

Выпущено: Россия, Srar Media
Продолжительность: ~ 01:30:00
Язык: Русский

Файл
Формат:TS
Качество: HDTV 1080i
Видео кодек: H.264
Аудио кодек: MP2
Видео: MPEG-4 AVC, ~ 7100 Кбит/с, 1920×1080
Аудио: MP2, 2 ch, 192 Кбит/с

Скриншоты


Личные счеты (2018) WEB-DLRip от GeneralFilm

16/12/2018

Наши фильмы

Comments Off on Личные счеты (2018) WEB-DLRip от GeneralFilm


СКАЧАТЬ TORRENT ФАЙЛ

Оригинальное название: Личные счеты
Год выпуска: 2018
Жанр: Мелодрама
Выпущено: Россия, Star Media
Режиссер: Алина Чеботарёва
В ролях: Ирина Таранник, Михаил Химичев, Александр Никитин, Нина Гогаева, Екатерина Долгова, Анастасия Чепелюк, Татьяна Виноградова, Никита Абдулов

О фильме: Жизнь Инны была похожа на сбывшуюся сказку, но случилась трагедия. В автокатастрофе погибают ее родители, и Инна теряет ребенка. Проходит три месяца, но она все еще так и не в силах справиться с депрессией. Перебирая документы, Инна случайно находит свидетельство о рождении девушки, носящей девичью фамилию ее матери. Так Инна узнает, что все это время у нее была сводная сестра – Яна. Теперь она – единственный родной человек. Инна решает разыскать сестру. Но Яна оказывается полной противоположностью воспитанной, образованной и изысканной Инны. Она – грубая и прямолинейная, выросла в деревне с теткой практически в нищете, теперь работает в обычной парикмахерской. А еще Яна до сих пор обижена на мать, которая бросила ее ради отца Инны. Инна надеется искупить вину матери – приглашает сестру в свой дом, одаривает подарками, устраивает на работу в престижный салон красоты. Она даже обещает со временем помочь Яне купить собственный салон… Но энтузиазм Инны не разделяет ее муж Вадим, он предупреждает – в ответ на свою доброту и великодушие, Инна получит от сестры лишь черную неблагодарность… Да и как может быть по-другому, когда на кону – большое наследство?..

Качество: WEB-DLRip
Видео: XviD build 73, 656×368 (16:9), 25.000 fps, 987 Kbps (~ 0.164 bit/pixel)
Аудио: 48.0 kHz, MP3, 2/0 ch, 128 kbps
Продолжительность: 01:32:38
Перевод: Не требуется
Cубтитры: нет
Скриншоты


MediaInfo
General
Complete name : D:RazdachiLichnye.Schety.2018.XviD.WEB-DLRip.GeneralFilm.avi
Format : AVI
Format/Info : Audio Video Interleave
File size : 745 MiB
Duration : 1 h 32 min
Overall bit rate : 1 125 kb/s
Writing application : VirtualDubMod 1.5.10.3 | www.virtualdub-fr.org || (build 2550/release)
Writing library : VirtualDubMod build 2550/release

Video
ID : 0
Format : MPEG-4 Visual
Format profile : Advanced Simple@L5
Format settings, BVOP : 1
Format settings, QPel : No
Format settings, GMC : No warppoints
Format settings, Matrix : Custom
Codec ID : XVID
Codec ID/Hint : XviD
Duration : 1 h 32 min
Bit rate : 987 kb/s
Width : 656 pixels
Height : 368 pixels
Display aspect ratio : 16:9
Frame rate : 25.000 FPS
Color space : YUV
Chroma subsampling : 4:2:0
Bit depth : 8 bits
Scan type : Progressive
Compression mode : Lossy
Bits/(Pixel*Frame) : 0.164
Stream size : 654 MiB (88%)
Writing library : XviD 73

Audio
ID : 1
Format : MPEG Audio
Format version : Version 1
Format profile : Layer 3
Codec ID : 55
Codec ID/Hint : MP3
Duration : 1 h 32 min
Bit rate mode : Constant
Bit rate : 128 kb/s
Channel(s) : 2 channels
Sampling rate : 48.0 kHz
Compression mode : Lossy
Stream size : 84.8 MiB (11%)
Alignment : Aligned on interleaves
Interleave, duration : 40 ms (1.00 video frame)
Interleave, preload duratio : 504 ms
Writing library : LAME3.99r
Encoding settings : -m s -V 4 -q 2 -lowpass 17 -b 128


Личные счеты (2018) WEB-DLRip от MegaPeer

16/12/2018

Наши фильмы

Comments Off on Личные счеты (2018) WEB-DLRip от MegaPeer


СКАЧАТЬ TORRENT ФАЙЛ

Оригинальное название: Личные счеты
Год выпуска: 2018
Жанр: Мелодрама
Выпущено: Россия, Srar Media
Режиссер: Алина Чеботарёва
В ролях: Ирина Таранник, Михаил Химичев, Александр Никитин, Нина Гогаева, Екатерина Долгова, Анастасия Чепелюк, Татьяна Виноградова, Никита Абдулов

О фильме: Жизнь Инны была похожа на сбывшуюся сказку, но случилась трагедия. В автокатастрофе погибают ее родители, и Инна теряет ребенка. Проходит три месяца, но она все еще так и не в силах справиться с депрессией. Перебирая документы, Инна случайно находит свидетельство о рождении девушки, носящей девичью фамилию ее матери. Так Инна узнает, что все это время у нее была сводная сестра – Яна. Теперь она – единственный родной человек. Инна решает разыскать сестру. Но Яна оказывается полной противоположностью воспитанной, образованной и изысканной Инны. Она – грубая и прямолинейная, выросла в деревне с теткой практически в нищете, теперь работает в обычной парикмахерской. А еще Яна до сих пор обижена на мать, которая бросила ее ради отца Инны. Инна надеется искупить вину матери – приглашает сестру в свой дом, одаривает подарками, устраивает на работу в престижный салон красоты. Она даже обещает со временем помочь Яне купить собственный салон… Но энтузиазм Инны не разделяет ее муж Вадим, он предупреждает – в ответ на свою доброту и великодушие, Инна получит от сестры лишь черную неблагодарность… Да и как может быть по-другому, когда на кону – большое наследство?..

Качество: WEB-DLRip
Видео: XviD, 2062 Кбит/с, 720×400
Аудио: AC3, 2 ch, 192 Кбит/с
Продолжительность: 01:32:37
Язык: Русский

Релиз:


Личные счеты (2018) WEB-DLRip-AVC от Files-x

16/12/2018

Наши фильмы

Comments Off on Личные счеты (2018) WEB-DLRip-AVC от Files-x


СКАЧАТЬ TORRENT ФАЙЛ

Информация о фильме
Оригинальное название: Личные счеты
Год выпуска: 2018
Жанр: Мелодрама
Режиссер: Алина Чеботарёва
В ролях: Ирина Таранник, Михаил Химичев, Александр Никитин, Нина Гогаева, Екатерина Долгова, Анастасия Чепелюк, Татьяна Виноградова, Никита Абдулов

О фильме:
Жизнь Инны была похожа на сбывшуюся сказку, но случилась трагедия. В автокатастрофе погибают ее родители, и Инна теряет ребенка. Проходит три месяца, но она все еще так и не в силах справиться с депрессией. Перебирая документы, Инна случайно находит свидетельство о рождении девушки, носящей девичью фамилию ее матери. Так Инна узнает, что все это время у нее была сводная сестра – Яна. Теперь она – единственный родной человек. Инна решает разыскать сестру. Но Яна оказывается полной противоположностью воспитанной, образованной и изысканной Инны. Она – грубая и прямолинейная, выросла в деревне с теткой практически в нищете, теперь работает в обычной парикмахерской. А еще Яна до сих пор обижена на мать, которая бросила ее ради отца Инны. Инна надеется искупить вину матери – приглашает сестру в свой дом, одаривает подарками, устраивает на работу в престижный салон красоты. Она даже обещает со временем помочь Яне купить собственный салон… Но энтузиазм Инны не разделяет ее муж Вадим, он предупреждает – в ответ на свою доброту и великодушие, Инна получит от сестры лишь черную неблагодарность… Да и как может быть по-другому, когда на кону – большое наследство?..

Страна: Россия
Студия: Srar Media
Продолжительность: 01:31:30

Файл
Кодек: h.264
Качество: WEB-DLRip-AVC
Видео: MPEG-4 AVC, ~ 1920 Кбит/с, 1024×576, 25 кадр/с
Аудио: AC3, 2 ch, 192 Кбит/с
Язык: Русский

Скриншоты