Евгений Карташов – Photoshop для фотографа 3.0 (2016) WEBDL 1080p


СКАЧАТЬ TORRENT ФАЙЛ

Информация о фильме

Название: Евгений Карташов Photoshop для фотографа 3.0

Год выхода: 2016
Жанр: Видеоурок

О фильме:
Издание 2016 года курса «Photoshop для фотографа 3.0» от известного фотографа Санкт-Петербурга — Евгения Карташова. Вас ждут 130 видеоуроков по всем аспектам обработки фотографий в Adobe Photoshop и Camera Raw, а также более 140 исходных фотографий для ваших тренировок и наработки практики. Работают только те знания, которые получены в результате практики.
Так же в раздачу включены дополнительные “бонусы” от того же издателя за 2016 год: “87 пресетов для Adobe Camera Raw”; “Работа с плагинами Nik Collection”; “Секреты ретуши кожи с Imagenomic Portraiture”; Панель “Черно-белая пленка” v 3.0.0

Страна: Россия

Продолжительность: 24:12:20
Язык: Русский

Файл
Кодек: H.264
Качество: HDTV
Видео: AVC/H.264, 1920×1080, ~1599 Kbps
Звук: AAC, 2 ch, 126Kbps, VBR

Media Info:Формат : MPEG-4
Профиль формата : Base Media / Version 2
Идентификатор кодека : mp42 (isom/mp42)
Размер файла : 45,1 Мбайт
Продолжительность : 15 м.
Режим общего битрейта : Переменный
Общий поток : 407 Кбит/сек
Дата кодирования : UTC 2015-12-20 10:19:35
Дата пометки : UTC 2015-12-20 10:19:35

Видео
Идентификатор : 1
Формат : AVC
Формат/Информация : Advanced Video Codec
Профиль формата : Baseline@L4
Параметр CABAC формата : Нет
Параметр ReFrames формата : 3 кадра
Параметр GOP формата : M=1, N=75
Идентификатор кодека : avc1
Идентификатор кодека/Информация : Advanced Video Coding
Продолжительность : 15 м.
Битрейт : 279 Кбит/сек
Ширина : 1920 пикселей
Высота : 1080 пикселей
Соотношение сторон : 16:9
Режим частоты кадров : Постоянный
Частота кадров : 15,000 кадров/сек
Цветовое пространство : YUV
Субдискретизация насыщенности : 4:2:0
Битовая глубина : 8 бит
Тип развёртки : Прогрессивная
Бит/(Пиксели*Кадры) : 0.009
Размер потока : 30,9 Мбайт (69%)
Язык : English
Дата кодирования : UTC 2015-12-20 10:19:36
Дата пометки : UTC 2015-12-20 10:19:36
Цветовой диапазон : Limited

Аудио
Идентификатор : 2
Формат : AAC
Формат/Информация : Advanced Audio Codec
Профиль формата : LC
Идентификатор кодека : 40
Продолжительность : 15 м.
Вид битрейта : Переменный
Битрейт : 126 Кбит/сек
Максимальный битрейт : 167 Кбит/сек
Каналы : 2 канала
Расположение каналов : Front: L R
Частота : 44,1 КГц
Частота кадров : 43,066 кадра/сек (1024 spf)
Метод сжатия : С потерями
Размер потока : 13,9 Мбайт (31%)
Язык : English
Дата кодирования : UTC 2015-12-20 10:19:36
Дата пометки : UTC 2015-12-20 10:19:36
Дополнительная информация:Исходники фотографий и прочие дополнительные материалы, которые использованы в курсе для обучения, находятся в папке photoshop_for_photographer_3.0, далее папка rs, затем files
Скриншоты


April 2020
M T W T F S S
 12345
6789101112
13141516171819
20212223242526
27282930