oCam Screen Recorder 280.0 (2016) PC | Portable by CheshireCat


СКАЧАТЬ TORRENT ФАЙЛ

  • Версия программы: 280.0
  • Официальный сайт: Ohsoft
  • Язык интерфейса: Русский, Английский и другие
  • Лечение: Не требуется

  • Системные требования:
    • Windows XP / 2003 / Vista / Windows 7, 8, 10 (32bit and 64bit)
    • 21 МБ Свободного дискового пространства

  • Описание:
    oCam Screen Recorder – бесплатная программа, позволяющая быстро и качественно записать видео всего происходящего на экране. Кодирование (сжатие) получаемого видео производится кодеками, установленными в систему. Имеется поддержка двух мониторов. Cam Screen Recorder позволяет записывать также и звуковое сопровождение, причем не только через микрофон. Особенностью программы является именно беспроблемная запись любых звуков, воспроизводимых через динамики в процессе записи. Для этого применяется технология WASAPI loopback, при которой производится захват звуков издаваемых системой (то, что мы слышим) без применения стереомикшера. Кроме того, программа может сохранять и обычные скриншоты в формате PNG.

    Features of product:

  • Computer screen, video recording is possible.
  • Recording using the built-in video codecs (AVI, MP4, MOV, TS, VOB) and audio codecs (MP3)
  • Have large video formats to support more than 4GB.
  • Recording sound from your computer as you can.
  • Audio recording is made possible without the stereo mix setting. (Windows 7, Vista SP1 or later)
  • A variety of sound quality when recording can be selected.
  • Screen capture is possible, too.
  • Recording area of the keyboard can be easily controlled.
  • Can record the full screen and window area.
  • During recording, the mouse cursor can be set to be included.
  • Bug reporting is available to developers.
  • Record the results can be stored in a specific folder, you have the option.
  • oCam dual-monitor support.
  • Flash in the IE browser, the target area can be selected.
  • Preferences from the FPS setting is possible.
  • Automatically recording the end of recording timeout function is available.
  • Изменения в версии:oCam History | Version 280.0
    – Fixed a bug when recording codec with NVIDIA NVENC
    – Added the ability to specify the starting number, serial number when you set the file name
    – Fixed a bug that appears, selecting Simplified Chinese, Traditional Chinese during installation
    – Fixed a bug appearing georgian different languages
    – Polish language update
    – Change the way internal advertising

    * Исправлена ошибка записи, связанная с NVIDIA NVENC
    * Добавлена возможность указывать начальный номер при задании имени файла
    * Исправлена ошибка, возникавшая в процессе установке при выборе китайского языка
    * Исправлена ошибка, возникавшая при выборе грузинского языка
    * Обновлен польский перевод
    * Изменения, связанные с показом рекламы

    Эта версия, у меня на Windows 7, 32 bit, работает. Предыдущая, не работала (портативная версия).Особенности портативной версии:Особенности сборки:

  • Отключен показ рекламы в окне программы.
  • Отключено дополнительное рекламное окно и запуск IE при закрытии программы.
  • Отключена проверка обновления.
  • Скорректирован и дополнен русский перевод.
    • Для запуска программы: oCam_Portable.exe.
    • Портативная версия программы, работает без инсталляции на компьютер.
  • Скриншоты

    IObit Smart Defrag Pro 5.1.0.788 Final (2016) PC | RePack by D!akov


    СКАЧАТЬ TORRENT ФАЙЛ

  • Название программы: IObit Smart Defrag
  • Версия программы: 5.1.0.788
  • Последняя версия программы: 5.1.0.788
  • Адрес официального сайта: IObit
  • Язык интерфейса: Multi/Русский
  • Лечение: не требуется (инсталлятор уже пролечен)
  • Системные требования:
    • Windows 10 / 8.1 / 8 / 7 / Vista / XP (32/64-bit)
    • 40 МБ свободного дискового пространства

  • Описание:
    Smart Defrag – дефрагментатор, позволяющий довести производительность жёсткого диска до максимально возможной. Созданная на основе новейшего дефрагментирующего механизма фирмы IObit и технологии «дефрагментация диска при загрузке системы», программа Smart Defrag занимает ведущие позиции среди средств дефрагментации. Она не только дефрагментирует файлы, но и грамотно распределяет их на диске с учётом частоты использования, что сокращает время доступа и повышает общую производительность системы. Smart Defrag работает быстро и незаметно, автоматически выполняя свои функции в фоновом режиме. Программа отлично подходит для жёстких дисков большой ёмкости.

    Основные возможности программы:Очень быстрая и эффективная дефрагментация:
    • Использование движка IObit и новой технологии дефрагментации во время загрузки системы позволяет быстро и эффективно выполнять процесс дефрагментации жёстких дисков. Программа специально разработана для современных, больших жёстких дисков, что избавляет от долгого ожидания окончания процесса дефрагментации.

    Максимальная производительность жестких дисков:

    • Smart Defrag упрощает структуру файловой системы, размещая часто используемые файлы и каталоги в быстрые области диска, что позволяет компьютеру работать на максимальной скорости с высокой стабильностью.

    Автоматический режим дефрагментации:
    • Smart Defrag работает автоматически в фоновом режиме, так что он постоянно держит Ваш компьютер в оптимизированном состоянии.

    Дефрагментация при загрузке системы:
    • Технология “Boot Time Defrag” позволяет дефрагментировать файлы в процессе загрузки системы, позволяя оптимизировать расположение файлов, которые не могут быть дефрагментированы в активном состоянии системы Windows.

    Безопасность данных и стабильность диска:
    • В отличие от других автоматических дефрагментаторов, IObit Smart Defrag не постоянно проводит процессы анализа и дефрагментации, которые повреждают Ваш жёсткий диск и сокращают время его безотказной работы. Smart Defrag использует технологию “Safe Intelligence”, обеспечивающую здоровье Ваших дисков, решая, когда и как выполнять дефрагментацию.

    Дефрагментация по расписанию:
    • Производительность Вашего компьютера лучше сохраняется, когда дефрагментация выполняется на регулярной основе. Smart Defrag предлагает гибкий способ, позволяющий планировать дефрагментацию диска в соответствии с Вашими потребностями.

    Прост в использовании:
    • Интуитивно понятный и простой в навигации интерфейс, позволяющий выполнять операции оптимизации даже начинающим пользователям.Новое в версии 5.0:• Новый движок дефрагментации поддерживает многопоточность.
    • Новая технология оптимизации и дефрагментации для наилучшей производительности.
    • Поддержка новой технологии дефрагментации крупных файлов для ускорения и увеличения долговечности диска.
    • Поддержка новой технологии дефрагментации свободного пространства для улучшенной производительности.
    • Поддержка планирования заданий для автоматического запуска дефрагментации при простое компьютера.
    • Добавлен тихий режим для интеллектуальной обработки в зависимости от статуса диска и пользовательских предпочтений.
    • Новый интерфейс для простого и удобного использования программы и более читабельный скин.
    • Добавлена функция автоматического обновления.
    • Поддержка более 30 языковых локализаций.

    ====================================================================

    • New Disk Health displays the latest disk status: temperature, disk usage, self monitoring report, etc.
    • Added Auto Analyze feature to notice you in time when your disks need defragmentation.
    • Added Fast Defrag method for ultimate defrag speed.
    • Improved defrag engine and algorithm for faster defragmentation and optimization.
    • Fixed occasional freeze and slow issue and other known issues.
    • Updated multiple languages.Особенности RePack'a:Тип: установка.
    Языки: ML.
    Вырезано: ничего.
    Активация: проведено.

    Ключи командной строки:
    • Тихая установка русской версии: /S
    • Также возможен выбор каталога для установки: После всех ключей необходимо добавить /D=%путь% Пример: файл_установки.exe /S /D=C:Program

  • Примечание!!! По завершении установки будет предложено изменить домашнюю страницу браузера. Не забудьте снять галочку.
  • Скриншоты

    Большое путешествие Пи-Ви / Pee-Wee’s big holiday (2016) WEB-DLRip От Cmert | L1


    СКАЧАТЬ TORRENT ФАЙЛ

    Информация о фильме
    Название: Большое путешествие Пи-Ви
    Оригинальное название: Pee-Wee's big holiday
    Год выхода: 2016
    Жанр: Комедия, приключения
    Режиссер: Джон Ли / John Lee
    В ролях: Пол Рубенс, Джо Манганьелло, Джессика Поли, Стефани Беатриз, Патрик Эган

    О фильме:
    Пи-Ви – маленький человек, живущий в маленьком городке и весьма довольный своей жизнью. Однако, серия неожиданных событий вынуждает Пи-Ви покинуть свою малую родину и отправиться в грандиозное путешествие по стране. Он встретит настоящих грабителей банков, познакомится с дружелюбным фермером и его девятью сексуально озабоченными дочерьми, а еще побывает в общине амишей…


    Страна: США
    Продолжительность: 01:29:07
    Перевод: Любительский одноголосый закадровый Cmert

    Файл
    Кодек: XviD MPEG-4
    Качество: WEB-DLRip
    Видео: 720×384 (1.88:1), 23.976 fps, XviD MPEG-4 ~2020 kbps avg, 0.30 bit/pixel
    Звук: 44.100 kHz, MPEG Layer 3, 2 ch, ~128.00 kbps avg

    Семпл

    Скриншоты


    В былые времена / Back in the Day (2016) WEB-DLRip | L


    СКАЧАТЬ TORRENT ФАЙЛ

    Информация о фильме
    Название: В былые времена
    Оригинальное название: Back in the Day
    Год выхода: 2016
    Жанр: драма, спорт
    Режиссер: Пол Боргезе
    В ролях: Алек Болдуин, Майкл Мэдсен, Шэннен Доэрти, Аннабелла Шиорра, Дэнни Гловер, Уильям ДеМео, Лилло Бранкато, Майк Тайсон, Джозеф Д'Онофрио, Пол Боргезе

    Слоган: «Когда вещи, которые, кажется, не имели значения, оказывается имели очень большое значение»

    О фильме: Детство и юность профессионального боксера Энтони Родригеса не были безоблачными. Вспоминая прежние деньки, он мысленно возвращается на бруклинскую улицу Бенсонхерст конца 80-х. Здесь было полно хулиганов, сомнительных заведений, часто слышались выстрелы. Наполовину итальянец, наполовину пуэрториканец, он вырос в жестоком мире насилия и расизма, терпел оскорбления, испытывал нужду. Безработному отцу-алкоголику было наплевать на сына, а заботливая и трудолюбивая мать умерла довольно рано. Не смотря на горечь утраты, Энтони изо всех сил пытался придерживаться моральных устоев, которые она ему привила, и всегда сохранять чувство собственного достоинства. На него обратил внимание босс местной мафии Энцо Девино, он взял парня под свое крыло, когда тот решил заниматься боксом. Энтони стал превращаться в сильного бойца, но здесь бокс был серьезным бизнесом, а Родригес мечтал о спортивной карьере. Для подростка из неблагополучного района добиться успеха в профессиональном боксе – цель почти недостижимая. И все же Энтони многое удалось. Вот только какой ценой?

    Страна: США / Tappan Films, The Movie Group Inc.
    Продолжительность: 02:01:14
    Перевод: Любительское (многоголосое) [Paradox & Omskbird records]

    Файл
    Качество: WEB-DLRip
    Формат: AVI
    Видео: XviD, 1827 Kb/s, 720×304
    Звук: Russian: AC3, 192 Kb/s (2 ch), English: AC3, 384 Kb/s (6 ch)
    Субтитры: English (внешние)

    Скриншоты

    Шутки ангела (2013) HDTVRip от Шкипер


    СКАЧАТЬ TORRENT ФАЙЛ

    Информация о фильме
    Название: Шутки ангела
    Год выхода: 2013
    Жанр: Комедия, фэнтези, боевик
    Режиссер: Евгений Аксёнов
    В ролях: Артур Ваха, Ростислав Бершауэр, Мария Бортник, Владимир Фоков, Алексей Федотов, Елена Купрашевич, Алена Силова, Геннадий Смирнов, Ольга Кирсанова-Миропольская, Алексей Васильев, Сергей Бызгу, Татьяна Иванова, Марина Ордина, Олег Петров, Данил Кокин, Владимир Маслаков, Александр Михалев, Дмитрий Петрушков, Александр Есаулов, Максим Крупский, Игорь Ключников, Юрий Яковлев, Екатерина Гудожник, Андрей Белоцерковский

    О фильме:
    Жил-был тиран и самодур бизнесмен Мухин. Так бы дальше и жил, мучая домочадцев и подчиненных, если бы… Если бы не началась за ним охота тайного убийцы, не было у него верного друга Пчелкина, надежного охранника Михалыча и маленькой дочки, которая подружилась с ангелом.

    Страна: Россия
    Студия: ТК “Домашний”, ООО “Ланд Синема”
    Продолжительность: 01:26:50
    Перевод: Не требуется

    Файл
    Кодек: XviD
    Качество: HDTVRip
    Видео: 688×384 (16:9), 25 fps, XviD build 73 ~1061 kbps avg, 0.161 bit/pixel
    Звук: 48 kHz, MPEG Layer 3, 2 ch, ~128.00 kbps avg
    Субтитры: Отсутствуют

    Семпл

    MIGeneral
    Complete name : D:Изготовление рипаShutki.angela.2013.HDTVRip.by shkiper.avi
    Format : AVI
    Format/Info : Audio Video Interleave
    File size : 745 MiB
    Duration : 1h 26mn
    Overall bit rate : 1 200 Kbps
    Writing application : VirtualDubMod 1.5.10.3 | www.virtualdub-fr.org || (build 2550/release)
    Writing library : VirtualDubMod build 2550/release

    Video
    ID : 0
    Format : MPEG-4 Visual
    Format profile : Advanced Simple@L5
    Format settings, BVOP : 1
    Format settings, QPel : No
    Format settings, GMC : No warppoints
    Format settings, Matrix : Custom
    Codec ID : XVID
    Codec ID/Hint : XviD
    Duration : 1h 26mn
    Bit rate : 1 062 Kbps
    Width : 688 pixels
    Height : 384 pixels
    Display aspect ratio : 16:9
    Frame rate : 25.000 fps
    Color space : YUV
    Chroma subsampling : 4:2:0
    Bit depth : 8 bits
    Scan type : Progressive
    Compression mode : Lossy
    Bits/(Pixel*Frame) : 0.161
    Stream size : 660 MiB (89%)
    Writing library : XviD 73

    Audio
    ID : 1
    Format : MPEG Audio
    Format version : Version 1
    Format profile : Layer 3
    Codec ID : 55
    Codec ID/Hint : MP3
    Duration : 1h 26mn
    Bit rate mode : Constant
    Bit rate : 128 Kbps
    Channel(s) : 2 channels
    Sampling rate : 48.0 KHz
    Compression mode : Lossy
    Stream size : 79.5 MiB (11%)
    Alignment : Aligned on interleaves
    Interleave, duration : 40 ms (1.00 video frame)
    Interleave, preload duratio : 504 ms
    Writing library : LAME3.99r
    Encoding settings : -m s -V 4 -q 2 -lowpass 17 -b 128Скриншоты


    Сверхспособности / Powers [02х01-06 из 10] (2016) WEBRip 720р | ColdFilm


    СКАЧАТЬ TORRENT ФАЙЛ

    Сверхспособности / Powers

    Страна: США

    Производство: Circle of Confusion, Sony Pictures Television
    Год выпуска: 2016
    Жанр: фантастика, драма, криминал
    Сезон: 2
    Серии: 1-6 (из 10)
    Продолжительность: х ~01:00:00

    Режиссеры: Микаэл Саломон, Билл Иглз, Дэвид Петрарка
    Авторы сценария: Чарли Хьюстон, Майк Эйвон Оеминг, Эллисон Мур

    В ролях: Шарлто Копли, Джастис Лик, Эндрю Сенсениг, Майкл Лоури, Сьюзэн Хэйард, Адам Годли, Ноа Тейлор, Олеся Рулин

    Описание: Сюжет сериала разворачивается в мире, где супергерои живут среди обычных людей. Сотрудники убойного отдела Кристиан Уокер и Дина Пилгрим занимаются защитой простых людей от преступников со сверхспособностями и расследуют дела, в которых замешаны эти супергерои…

    Перевод: Любительский (двухголосый, закадровый) | КОЛДФИЛЬМ
    Субтитры: нет

    Качество: WEBRip 720р
    Формат: МКV
    Видео кодек: AVC
    Аудио кодек: ААС
    Видео: 1280×720 (16:9), 25.000 fps, MPEG-4 AVC ~3 200 kbps avg
    Аудио: 48.0 kHz, Advanced Audio Codec LC, 2/0 (L,R) ch, ~192 kbps

    Дата премьеры (мир): 31 мая 2016

    ПРИМЕЧАНИЕ: ПРИСУТСТВУЕТ РЕКЛАМА!

    Скриншоты

    В поле зрения / Person of Interest [S05] (2016) WEB-DLRip | NewStudio


    СКАЧАТЬ TORRENT ФАЙЛ

    ⛛ ПОДОЗРЕВАЕМЫЕ ⛛

    Информация о фильме:
    ✦ Год выхода: 2016
    ✦ Название: В поле зрения / Подозреваемые
    ✦ Жанр: боевик, триллер, драма, детектив
    ✦ Оригинальное название: Person of Interest
    ✦ Режиссер: Джеффри Дж. Хант, Ричард Дж. Льюис, Фред Туа
    ✦ В ролях: Джеймс Кэвизел, Майкл Эмерсон, Stanislav Shkilnyi, Узиманн, Тараджи П. Хенсон, Кевин Чэпмен, Куртеней Тейлор, Крис Чок, Жермен Кроуфорд, Брайан Д’Арси Джеймс

    Описание фильма:
    Мистер Финч – загадочный миллиардер, разработавший компьютерную программу, которая предсказывает будущих жертв преступлений. Финч нанимает Риза – бывшего агента ЦРУ, предполагаемо, мертвого, чтобы помочь остановить эти преступления, используя ресурсы и технику Финча, и навыки и знания Риза.

    ✦ Страна: США
    ✦ Продолжительность: ~ 00:43:00 серия
    ✦ Перевод: Профессиональный (многоголосый, закадровый) – NewStudio

    Информация о файле:
    ✦ Формат: AVI | XviD
    ✦ Качество: WEB-DLRip
    ✦ Видео: ~ 1500 kbps, 720×400, 23.976 fps
    ✦ Аудио RU: mp3, 48.0 KHz, 2 ch, 128 kbps
    ✦ Аудио EN: mp3, 48.0 KHz, 2 ch, 128 kbps
    ✦ Субтитры: отсутствуют
    полностью отсутствует реклама.

    〤 Релиз 〤

    Перевод: Перевод: Weirdie
    Озвучка: NewStudio
    〤 Скриншоты 〤

    〤 Раздача ведется путем добавления новых серий 〤Когда раздача ведётся путём добавления новых серий, при каждом добавлении создётся новый торрент. Чтобы начать докачку новой серии, пользователям необходимо сделать следующее:
    (1) остановить скачивание,
    (2) удалить старый торрент у себя из клиента (старые серии удалять не надо),
    (3) скачать новый торрент и запустить его у себя в клиенте вместо старого, при этом указать клиенту путь в старую папку, куда и должно происходить скачивание новых серий.
    Ваш клиент при этом должен произвести хеширование (проверку) старой папки (если не производит сам – помогите ему сделать это), и будет докачивать только те серии, которых у вас ещё нет. Старые серии при этом не удаляются, а продолжают раздаваться!
    Eсли вы уже удалили старые серии, то предотвратить повторную закачку старых серий можно, отжав галочку в соответсвующих местах при запуске нового торрента. По возможности, желательно не удалять старые серии как можно дольше, чтобы релизёр не столько продолжал раздавать старые серии, а смог сконцентрироваться на новых.

    Офицеры (2015) HDTV 720p от GeneralFilm


    СКАЧАТЬ TORRENT ФАЙЛ

    Информация о фильме
    Оригинальное название: Офицеры
    Год выпуска: 2015
    Жанр: Документальный, познавательный, история
    Режиссер: Андрей Гарянин

    О фильме: Долгие годы мы жили в плену мифа о том, что Гражданская война 1917-1923 годов была войной классовой. Что за Белую армию воевали сплошь аристократы, а за Красную – исключительно народные комдивы. На самом же деле до Октябрьского переворота в армии Российской Империи служило сто пятьдесят тысяч генералов и офицеров и порядка тридцати процентов из них в годы Гражданской войны оказались в Красной армии. Как ни странно это звучит, но спустя почти столетие становится понятно, что именно те, кто выбрал сторону Красных, а вовсе не участники Белого движения сохранили Великую Россию, ту страну – от Тихого океана до Балтики, – в которой мы живем сегодня.

    Выпущено: Россия, ВГТРК
    Продолжительность: 00:44:10
    Перевод: не требуется

    Файл
    Кодек: MPEG-4 AVC
    Качество: HDTV 720p
    Видео: ~ 2400 Кбит/с, 1280×720
    Звук: AC3, 2ch, 224 Кбит/с

    Скриншоты


    Салтыков-Щедрин шоу [01-06] (2016) SATRip от Files-х


    СКАЧАТЬ TORRENT ФАЙЛ

    Информация о фильме
    Оригинальное название: Салтыков-Щедрин шоу
    Год выпуска: 2016
    Жанр: ТВ шоу, развлекательно-юмористический
    Ведущий: Николай Фоменко, Алексей Кортнев, Дмитрий Колчин, Сергей Нетиевский, Екатерина Скулкина, Сергей Белоголовцев

    О фильме: На НТВ — новая развлекательно-юмористическая программа «Салтыков-Щедрин шоу», снятая в жанре социальной сатиры. Ведущих с телезрителями будет объединять острое восприятие российской действительности, подкрепленное хлестким юмором, иронией и сарказмом. Название программы говорит само за себя: Салтыков-Щедрин умело обличал пороки и недостатки общества, не теряющие актуальности из века в век. Темы программы ведущие будут черпать из видеороликов, присланных зрителями — стрингерами НТВ со всех уголков России.

    Содержание
    Подробно о каждом выпуске Вы узнаете, перейдя по ссылке

    Салтыков-Щедрин шоу (1-6 выпуск) 2016

    Выпущено: Россия, Телекомпания НТВ
    Продолжительность: 6 х ~ 00:46:00
    Перевод: Не требуется

    Файл
    Кодек: XviD
    Качество: SATRip
    Видео: ~1800 Кбит/с, 720×448
    Звук: AC3, 2ch, 192 Кбит/с

    Скриншоты


    Внимание! Раздача ведётся путём добавления новых выпусков
    Внимание! Раздача ведётся путём добавления новых выпусков; при каждом добавлении создаётся новый торрент. Чтобы начать докачку нового выпуска, пользователям необходимо сделать следующее:
    (1) остановить скачивание,
    (2) удалить старый торрент у себя из клиента (старые серии удалять не надо),
    (3) скачать новый торрент и запустить его у себя в клиенте вместо старого, при этом указать клиенту путь в старую папку куда и должно происходить скачивание новых выпусков.
    Ваш клиент при этом должен произвести хеширование (проверку) старой папки (если не производит сам – помогите ему сделать это). В результате он будет докачивать только те выпуски, которых у Вас ещё нет. Старые выпуски при этом не удаляются, а продолжают раздаваться!
    Eсли Вы уже удалили старые выпуски, то предотвратить их повторную закачку можно, сняв галочки в соответствующих местах при запуске нового торрента. По возможности, желательно не удалять старые выпуски как можно дольше, чтобы релизёр не только продолжал раздавать старые выпуски, но и смог сконцентрироваться на новых.

    Зверополис / Zootopia (2016) HDRip-AVC от ExKinoRay | iTunes


    СКАЧАТЬ TORRENT ФАЙЛ

    Информация о фильме
    Название: Зверополис
    Оригинальное название: Zootopia
    Год выхода: 2016
    Жанр: Мультфильм, боевик, комедия, криминал, приключения, семейный
    Режиссер: Байрон Ховард, Рич Мур, Джаред Буш
    В ролях: Джиннифер Гудвин, Джейсон Бейтман, Идрис Эльба, Дженни Слейт, Нейт Торренс, Бонни Хант
    Роли дублировали: Мария Ивакова, Антон Лаврентьев, Борис Хасанов, Мария Аронова, Андрей Мошков

    О фильме: Добро пожаловать в Зверополис — современный город, населенный самыми разными животными, от огромных слонов до крошечных мышек. Зверополис разделен на районы, полностью повторяющие естественную среду обитания разных жителей — здесь есть и элитный район Площадь Сахары и неприветливый Тундратаун. В этом городе появляется новый офицер полиции, жизнерадостная зайчиха Джуди Хоппс, которая с первых дней работы понимает, как сложно быть маленькой и пушистой среди больших и сильных полицейских. Джуди хватается за первую же возможность проявить себя, несмотря на то, что ее партнером будет болтливый хитрый лис Ник Уайлд. Вдвоем им предстоит раскрыть сложное дело, от которого будет зависеть судьба всех обитателей Зверополиса…

    Выпущено: США / Walt Disney Animation Studios, Walt Disney Pictures
    Продолжительность:01:48:23
    Перевод: Дублированный [iTunes]
    Субтитры: Английские

    Файл
    Качество: HDRip (AVC)
    Видео: MPEG-4 AVC, 1888 Kбит/с, 1024×428
    Аудио: Русский (AC3, 6 ch, 384 Кбит/с), английский (AC3, 6 ch, 448 Кбит/с)

    МИGeneral
    Unique ID : 236707492465444079186727011791540914791 (0xB214346C76513769AD6AE44C54590A67)
    Complete name : C:Zootopia.2016.D.HDRip.AVC.ExKinoRay.mkv
    Format : Matroska
    Format version : Version 4 / Version 2
    File size : 2.06 GiB
    Duration : 1h 48mn
    Overall bit rate : 2 722 Kbps
    Movie name : Zootopia 2016 from ExKinoRay
    Encoded date : UTC 2016-06-06 20:08:47
    Writing application : mkvmerge v6.6.0 ('The Edge Of The In Between') built on Dec 1 2013 17:55:00
    Writing library : libebml v1.3.0 + libmatroska v1.4.1

    Video
    ID : 1
    Format : AVC
    Format/Info : Advanced Video Codec
    Format profile : High@L4.1
    Format settings, CABAC : Yes
    Format settings, ReFrames : 12 frames
    Codec ID : V_MPEG4/ISO/AVC
    Duration : 1h 48mn
    Bit rate : 1 888 Kbps
    Width : 1 024 pixels
    Height : 428 pixels
    Display aspect ratio : 2.40:1
    Frame rate mode : Constant
    Frame rate : 23.976 fps
    Color space : YUV
    Chroma subsampling : 4:2:0
    Bit depth : 8 bits
    Scan type : Progressive
    Bits/(Pixel*Frame) : 0.180
    Stream size : 1.39 GiB (67%)
    Title : Enigma
    Writing library : x264 core 142 r2431 ac76440
    Encoding settings : cabac=1 / ref=12 / deblock=1:-2:-2 / analyse=0x3:0x113 / me=umh / subme=10 / psy=1 / psy_rd=1.05:0.10 / mixed_ref=1 / me_range=32 / chroma_me=1 / trellis=2 / 8x8dct=1 / cqm=0 / deadzone=21,11 / fast_pskip=0 / chroma_qp_offset=-3 / threads=12 / lookahead_threads=2 / sliced_threads=0 / nr=0 / decimate=0 / interlaced=0 / bluray_compat=0 / constrained_intra=0 / bframes=9 / b_pyramid=2 / b_adapt=2 / b_bias=0 / direct=3 / weightb=1 / open_gop=0 / weightp=2 / keyint=240 / keyint_min=23 / scenecut=40 / intra_refresh=0 / rc_lookahead=40 / rc=2pass / mbtree=0 / bitrate=1888 / ratetol=1.0 / qcomp=0.60 / qpmin=0 / qpmax=51 / qpstep=4 / cplxblur=20.0 / qblur=0.5 / vbv_maxrate=50000 / vbv_bufsize=62500 / nal_hrd=none / filler=0 / ip_ratio=1.40 / pb_ratio=1.30 / aq=1:1.00
    Language : English
    Default : Yes
    Forced : No
    Color primaries : BT.709
    Transfer characteristics : BT.709
    Matrix coefficients : BT.709

    Audio #1
    ID : 2
    Format : AC-3
    Format/Info : Audio Coding 3
    Mode extension : CM (complete main)
    Format settings, Endianness : Big
    Codec ID : A_AC3
    Duration : 1h 48mn
    Bit rate mode : Constant
    Bit rate : 384 Kbps
    Channel(s) : 6 channels
    Channel positions : Front: L C R, Side: L R, LFE
    Sampling rate : 48.0 KHz
    Bit depth : 16 bits
    Compression mode : Lossy
    Stream size : 298 MiB (14%)
    Title : Dub (iTunes)
    Language : Russian
    Default : Yes
    Forced : No

    Audio #2
    ID : 3
    Format : AC-3
    Format/Info : Audio Coding 3
    Mode extension : CM (complete main)
    Format settings, Endianness : Big
    Codec ID : A_AC3
    Duration : 1h 48mn
    Bit rate mode : Constant
    Bit rate : 448 Kbps
    Channel(s) : 6 channels
    Channel positions : Front: L C R, Side: L R, LFE
    Sampling rate : 48.0 KHz
    Bit depth : 16 bits
    Compression mode : Lossy
    Stream size : 348 MiB (16%)
    Language : English
    Default : No
    Forced : No

    Text #1
    ID : 4
    Format : UTF-8
    Codec ID : S_TEXT/UTF8
    Codec ID/Info : UTF-8 Plain Text
    Title : full
    Language : English
    Default : No
    Forced : No

    Text #2
    ID : 5
    Format : UTF-8
    Codec ID : S_TEXT/UTF8
    Codec ID/Info : UTF-8 Plain Text
    Title : SDH
    Language : English
    Default : No
    Forced : No

    Menu
    00:00:00.000 : en:00:00:00.000
    00:00:59.559 : en:00:00:59.559
    00:05:50.100 : en:00:05:50.100
    00:10:05.563 : en:00:10:05.563
    00:14:31.537 : en:00:14:31.537
    00:18:24.019 : en:00:18:24.019
    00:26:03.353 : en:00:26:03.353
    00:30:57.439 : en:00:30:57.439
    00:37:07.100 : en:00:37:07.100
    00:40:43.441 : en:00:40:43.441
    00:44:31.752 : en:00:44:31.752
    00:51:40.430 : en:00:51:40.430
    00:55:40.378 : en:00:55:40.378
    01:00:48.269 : en:01:00:48.269
    01:03:37.855 : en:01:03:37.855
    01:09:19.822 : en:01:09:19.822
    01:13:39.165 : en:01:13:39.165
    01:17:07.372 : en:01:17:07.372
    01:21:52.366 : en:01:21:52.366
    01:28:19.169 : en:01:28:19.169
    01:32:43.433 : en:01:32:43.433
    01:36:12.141 : en:01:36:12.141

    Автор релиза: