Главная » Видео » Зарубежные фильмы » Знакомьтесь, семейка Блэков / Meet the Blacks (2016) BDRip-AVC | iTunes

Знакомьтесь, семейка Блэков / Meet the Blacks (2016) BDRip-AVC | iTunes

СКАЧАТЬ TORRENT ФАЙЛ

Информация о фильме
Название: Знакомьтесь, семейка Блэков
Оригинальное название: Meet the Blacks
Год выхода: 2016
Жанр: Комедия, ужастик, пародия
Режиссер: Деон Тейлор / Deon Taylor
В ролях: Kathrien Ahn, Фил Остин, Эндрю Бэчелор, Майкл Блэксон, Майкл Карадонна, Тамека 'Тини' Коттл, Лавелл Кроуфорд, ДеРэй Дэвис, Роланд Пауэлл, Кейт Энггрен

О фильме:
Семья Блэков, на которую свалилось нежданное богатство, переезжает из Чикаго в Беверли-Хиллз, где, как думается главе семейства , их ждёт сладкая жизнь. Но вот невезуха, именно в этот день там устраивают «Судную ночь», следующие 12 часов все преступления считаются законными. Хех, не на тех напали, наши герои в таком районе жили, где подобные праздники отмечают 365 дней в году.

Страна: США
Продолжительность: 01:34:01
Перевод: Профессиональный многоголосый (iTunes)

Файл
Кодек: AVC
Качество: BDRip-AVC
Видео: x.264, 1008×420, 1832 kbps, 23.976 fps
Звук: AC3, 384 kbps, 5.1 channels, 48000 Hz
Субтитры: Английские

Скриншоты



MIFormat : Matroska
Format version : Version 2
File size : 1.45 GiB
Duration : 1h 34mn
Overall bit rate : 2 214 Kbps
Movie name : Знакомьтесь, семейка Блэков / Meet the Blacks (2016) BDRip-AVC | iTunes
Encoded date : UTC 2017-01-06 21:20:57
Writing application : mkvmerge v7.7.0 ('Six Voices') 32bit built on Feb 28 2015 23:23:00
Writing library : libebml v1.3.1 + libmatroska v1.4.2
Cover : Yes
Attachments : Cover.jpg

Video
ID : 1
Format : AVC
Format/Info : Advanced Video Codec
Format profile : High@L4.1
Format settings, CABAC : Yes
Format settings, ReFrames : 10 frames
Codec ID : V_MPEG4/ISO/AVC
Duration : 1h 34mn
Bit rate : 1 832 Kbps
Width : 1 008 pixels
Height : 420 pixels
Display aspect ratio : 2.40:1
Frame rate mode : Constant
Frame rate : 23.976 (24000/1001) fps
Color space : YUV
Chroma subsampling : 4:2:0
Bit depth : 8 bits
Scan type : Progressive
Bits/(Pixel*Frame) : 0.180
Stream size : 1.17 GiB (81%)
Writing library : x264 core 148 r2705kMod 3f5ed56
Encoding settings : cabac=1 / ref=10 / deblock=1:-3:-3 / analyse=0x3:0x133 / me=umh / subme=10 / psy=1 / fade_compensate=0.00 / psy_rd=1.00:0.00 / mixed_ref=1 / me_range=32 / chroma_me=1 / trellis=2 / 8x8dct=1 / cqm=0 / deadzone=21,11 / fast_pskip=0 / chroma_qp_offset=-2 / threads=3 / lookahead_threads=1 / sliced_threads=0 / nr=0 / decimate=1 / interlaced=0 / bluray_compat=0 / constrained_intra=0 / fgo=0 / bframes=10 / b_pyramid=2 / b_adapt=2 / b_bias=0 / direct=1 / weightb=1 / open_gop=0 / weightp=2 / keyint=240 / keyint_min=23 / scenecut=40 / intra_refresh=0 / rc_lookahead=60 / rc=2pass / mbtree=0 / bitrate=1832 / ratetol=1.0 / qcomp=0.70 / qpmin=0 / qpmax=69 / qpstep=4 / cplxblur=20.0 / qblur=0.5 / vbv_maxrate=50000 / vbv_bufsize=62500 / nal_hrd=none / filler=0 / ip_ratio=1.40 / pb_ratio=1.30 / aq=1:1.00
Language : English
Default : Yes
Forced : No

Audio
ID : 2
Format : AC-3
Format/Info : Audio Coding 3
Mode extension : CM (complete main)
Format settings, Endianness : Big
Codec ID : A_AC3
Duration : 1h 34mn
Bit rate mode : Constant
Bit rate : 384 Kbps
Channel(s) : 6 channels
Channel positions : Front: L C R, Side: L R, LFE
Sampling rate : 48.0 KHz
Frame rate : 31.250 fps (1536 spf)
Compression mode : Lossy
Stream size : 258 MiB (17%)
Title : iTunes
Language : Russian
Default : Yes
Forced : No

Text
ID : 3
Format : UTF-8
Codec ID : S_TEXT/UTF8
Codec ID/Info : UTF-8 Plain Text
Language : English
Default : No
Forced : No

Menu
00:00:00.000 : en:Chapter 01
00:04:42.740 : en:Chapter 02
00:12:38.340 : en:Chapter 03
00:17:42.644 : en:Chapter 04
00:24:58.622 : en:Chapter 05
00:29:49.788 : en:Chapter 06
00:35:07.855 : en:Chapter 07
00:43:28.272 : en:Chapter 08
00:46:44.218 : en:Chapter 09
00:52:11.586 : en:Chapter 10
00:56:22.545 : en:Chapter 11
01:04:59.896 : en:Chapter 12
01:10:29.808 : en:Chapter 13
01:16:49.271 : en:Chapter 14
01:21:17.455 : en:Chapter 15
01:28:26.676 : en:Chapter 16

x

Не пропустите

Энджи Трайбека / Angie Tribeca [03х01-06 из 10] (2017) HDTVRip 720p | Sunshine Studio

СКАЧАТЬ TORRENT ФАЙЛ Информация о сериале Название: Энджи Трайбека Оригинальное название: Angie Tribeca Год выпуска: ...