Главная » Видео » Зарубежные фильмы » Выстрел в пустоту / Shot Caller (2017) BDRemux 1080p от ExKinoRay | iTunes

Выстрел в пустоту / Shot Caller (2017) BDRemux 1080p от ExKinoRay | iTunes

СКАЧАТЬ TORRENT ФАЙЛ

Информация о фильме
Название: Выстрел в пустоту
Оригинальное название: Shot Caller
Год выхода: 2017
Жанр: Триллер, драма, криминал
Режиссер: Рик Роман Во
В ролях: Николай Костер-Валдау, Джон Бернтал, Лэйк Белл, Омари Хардвик, Джеффри Донован, Эмори Коэн, Бенджамин Брэтт, Джесси Шрэм, Майкл Лэндис, Холт МакКэллани

О фильме:
Роковая случайность, смертельная трагедия, и вся его жизнь летит под откос… Оказавшись за решеткой, он должен научиться жить по новым законам. Ты должен стать борцом, авторитетом или окажешься жертвой. Какую цену придется заплатить, чтобы выжить в этом аду, из которого нет дороги назад?..

Страна: США
Студия: Bold Films, DirecTV, Participant Media, Relativity Media
Продолжительность: 02:00:41
Перевод: Дублированный | iTunes

Файл
Качество: BDRemux 1080p
Видео: MPEG-4 AVC, 1920×1080, 30.3 Mbit/s, 23.976 fps
Звук:
Аудио #01: 48 kHz, AC3, 5.1, 384 Kbps | Дублированный | iTunes | RUS |

Аудио #02: 48 kHz, TrueHD, 5.1, 5172 Kbps | Оригинал | ENG |

Субтитры: Английские

MIGeneral
Unique ID : 218507512835591391514629713376556775414 (0xA4630425F81F0B5C83A263154C2277F6)
Complete name : F:VideoShot.Caller.2017.BDREMUX.1080p.ExKinoRay.mkv
Format : Matroska
Format version : Version 4 / Version 2
File size : 28.9 GiB
Duration : 2 h 0 min
Overall bit rate mode : Variable
Overall bit rate : 34.3 Mb/s
Encoded date : UTC 2017-08-10 19:50:10
Writing application : mkvmerge v14.0.0 ('Flow') 64bit
Writing library : libebml v1.3.4 + libmatroska v1.4.5

Video
ID : 1
Format : AVC
Format/Info : Advanced Video Codec
Format profile : High@L4.1
Format settings, CABAC : Yes
Format settings, RefFrames : 4 frames
Codec ID : V_MPEG4/ISO/AVC
Duration : 2 h 0 min
Bit rate mode : Variable
Bit rate : 30.3 Mb/s
Maximum bit rate : 35.0 Mb/s
Width : 1 920 pixels
Height : 1 080 pixels
Display aspect ratio : 16:9
Frame rate mode : Constant
Frame rate : 23.976 (24000/1001) FPS
Standard : NTSC
Color space : YUV
Chroma subsampling : 4:2:0
Bit depth : 8 bits
Scan type : Progressive
Bits/(Pixel*Frame) : 0.610
Stream size : 25.6 GiB (88%)
Language : English
Default : Yes
Forced : No
Color range : Limited
Color primaries : BT.709
Transfer characteristics : BT.709
Matrix coefficients : BT.709

Audio #1
ID : 2
Format : AC-3
Format/Info : Audio Coding 3
Format settings, Endianness : Big
Codec ID : A_AC3
Duration : 2 h 0 min
Bit rate mode : Constant
Bit rate : 384 kb/s
Channel(s) : 6 channels
Channel positions : Front: L C R, Side: L R, LFE
Sampling rate : 48.0 kHz
Frame rate : 31.250 FPS (1536 SPF)
Bit depth : 16 bits
Compression mode : Lossy
Stream size : 331 MiB (1%)
Title : iTunes
Language : Russian
Service kind : Complete Main
Default : Yes
Forced : No

Audio #2
ID : 3
Format : TrueHD
Codec ID : A_TRUEHD
Duration : 2 h 0 min
Bit rate mode : Variable
Bit rate : 3 514 kb/s
Maximum bit rate : 5 172 kb/s
Channel(s) : 6 channels
Channel positions : Front: L C R, Side: L R, LFE
Sampling rate : 48.0 kHz
Frame rate : 1 200.000 FPS (40 SPF)
Compression mode : Lossless
Stream size : 2.96 GiB (10%)
Title : Original
Language : English
Default : No
Forced : No

Text #1
ID : 4
Format : UTF-8
Codec ID : S_TEXT/UTF8
Codec ID/Info : UTF-8 Plain Text
Duration : 1 h 52 min
Bit rate : 46 b/s
Count of elements : 1251
Stream size : 38.1 KiB (0%)
Title : Full
Language : English
Default : No
Forced : No

Text #2
ID : 5
Format : UTF-8
Codec ID : S_TEXT/UTF8
Codec ID/Info : UTF-8 Plain Text
Duration : 1 h 53 min
Bit rate : 47 b/s
Count of elements : 1328
Stream size : 39.8 KiB (0%)
Title : SDH
Language : English
Default : No
Forced : No

Menu
00:00:00.000 : en:00:00:00.000
00:22:10.621 : en:00:22:10.621
00:35:14.571 : en:00:35:14.571
00:53:05.224 : en:00:53:05.224
01:06:42.040 : en:01:06:42.040
01:22:27.359 : en:01:22:27.359
01:40:29.482 : en:01:40:29.482
01:54:37.996 : en:01:54:37.996

Автор релиза:

Подпишись на меня, кликни по картинке > :

x

Не пропустите

Зверинец / Zoo [S03] (2017) WEB-DLRip 720p | Profix Media

СКАЧАТЬ TORRENT ФАЙЛ Информация о фильме Название: Зверинец Оригинальное название: Zoo Год выхода: 2017 Жанр: ...