Главная » Видео » Зарубежные фильмы » В квадрате / Squared (2014) WEBRip от Portablius | L1

В квадрате / Squared (2014) WEBRip от Portablius | L1

СКАЧАТЬ TORRENT ФАЙЛ

Информация о фильме
Название: В квадрате
Оригинальное название: Squared
Год выхода: 2014
Жанр: комедия, мелодрама, гей-тема, короткометражный
Режиссер: Хью Трэн
В ролях: Ямил Джайман (Тэйт), Этан Ле Фонг (Уолли)

О фильме: Два парня, Тэйт и азиат Уолли, знакомятся в Интернете. Тэйт приглашает к себе Уолли, всё идёт хорошо, пока уже в постели не выясняется досадное недоразумение — оба то активы. Поскольку Уолли далеко добираться домой и чтобы вечер не пропал даром, парни решают выяснить, кто круче, кому же быть сверху … и устраивают, так сказать, «соревнование» — меряются бицепсами, членами и т. д. Так чем же закончится это «соревновании» ?
Фильм получил Приз жюри за Лучший короткометражный фильм на Нью-Йоркском Международном кинофестивале (США) в 2014 г.

Страна: США
Продолжительность: 00:14:39
Перевод: Любительский (одноголосый, закадровый) (Kirill Ivanov)
Субтитры: китайские (неотключаемые)

Файл
Кодек: XviD
Качество: WEBRip
Видео: 720×400 (1.80:1), 25 fps, XviD build 73 ~1199 kbps avg, 0.17 bit/pixel
Звук: 48 kHz, MPEG Layer 3, 2 ch, ~128.00 kbps avg

MediaInfoGeneral
Complete name : V.Kvadrate.2014.WEBRip.ot.Portablius.avi
Format : AVI
Format/Info : Audio Video Interleave
File size : 140 MiB
Duration : 14 min 39 s
Overall bit rate : 1 338 kb/s
Writing application : VirtualDubMod 1.5.10.3 | www.virtualdub-fr.org || (build 2550/release)
Writing library : VirtualDubMod build 2550/release

Video
ID : 0
Format : MPEG-4 Visual
Format profile : Advanced Simple@L5
Format settings, BVOP : 1
Format settings, QPel : No
Format settings, GMC : No warppoints
Format settings, Matrix : Custom
Codec ID : XVID
Codec ID/Hint : XviD
Duration : 14 min 39 s
Bit rate : 1 200 kb/s
Width : 720 pixels
Height : 400 pixels
Display aspect ratio : 16:9
Frame rate : 25.000 FPS
Color space : YUV
Chroma subsampling : 4:2:0
Bit depth : 8 bits
Scan type : Progressive
Compression mode : Lossy
Bits/(Pixel*Frame) : 0.167
Stream size : 126 MiB (90%)
Writing library : XviD 73

Audio
ID : 1
Format : MPEG Audio
Format version : Version 1
Format profile : Layer 3
Codec ID : 55
Codec ID/Hint : MP3
Duration : 14 min 39 s
Bit rate mode : Constant
Bit rate : 128 kb/s
Channel(s) : 2 channels
Sampling rate : 48.0 kHz
Compression mode : Lossy
Stream size : 13.4 MiB (10%)
Alignment : Aligned on interleaves
Interleave, duration : 40 ms (1.00 video frame)
Interleave, preload duratio : 504 ms
Writing library : LAME3.99r
Encoding settings : -m s -V 4 -q 2 -lowpass 17 -b 128

Скриншоты

x

Не пропустите

Оттенки синего / Shades of Blue [03×01-05 из 13] (2018) WEBRip 1080p | GostFilm

СКАЧАТЬ TORRENT ФАЙЛ Информация о фильме Название: Оттенки синего Оригинальное название: Shades of Blue Год ...