Главная » Видео » Зарубежные фильмы » Tomb Raider: Лара Крофт / Tomb Raider (2018) BDRip-AVC от OlLanDGroup | Лицензия

Tomb Raider: Лара Крофт / Tomb Raider (2018) BDRip-AVC от OlLanDGroup | Лицензия

СКАЧАТЬ TORRENT ФАЙЛ

Tomb Raider: Лара Крофт / Tomb Raider
«Her legend begins»

Год выпуска: 2018
Страна: Великобритания, США
Производство: Metro-Goldwyn-Mayer (MGM), Square Enix Inc., Warner Bros. Pictures
Жанр: Боевик, приключения

Режиссёр: Роар Утхауг
В ролях: Алисия Викандер, Доминик Уэст, Уолтон Гоггинс, Дэниэл Ву, Кристин Скотт Томас, Дерек Джекоби, Александр Виллауме, Тамер Барджаг, Эдриан Коллинз, Кинэн Эррисон, Андриан Мазив, Милтон Шорр, Ханна Джон-Кэймен, Питер Уэйсон, Сэмюэл Мак, Скай Янг, Билли Постлтуэйт, Рекха Джон-Чериян, Антонио Аакил, Эмили Кэри, Рэй Лим

Перевод: Дублированный | Лицензия
Субтитры: Английские
Реклама: Отсутствует

Описание: Лара Крофт — весьма самостоятельная дочь эксцентричного искателя приключений, который пропал, едва она стала подростком. Теперь ей двадцать один, она бесцельно проживает свою жизнь, курьером рассекая на байке по забитым улицам восточного Лондона, а ее заработка едва хватает на оплату квартиры и занятий в колледже. Решительно настроенная пробиться сама, она отказывается брать на себя руководство глобальной империей отца, столь же категорично отвергая мысль о том, что он действительно пропал. Слыша советы о том, что ей нужно смириться с этим фактом и жить дальше после семи лет бесплодных поисков, Лара уже и сама не понимает, что же заставляет ее распутывать обстоятельства его таинственной смерти.

Качество: BDRip-AVC
Продолжительность: 01:57:50

Формат: MKV
Видео кодек: MPEG-4 AVC
Аудио кодек: AC3
Видео: 720×302 (2.40:1), 23,976 fps, x264 ~1 325 kbps avg, 0.254 bit/pixel
Аудио: 48 kHz, AC3 Dolby Digital, 3/2 (L,C,R,l,r) + LFE ch, ~448.00 kbps avg | RUS (Лицензия)

Дата премьеры (мир): 2 марта 2018
Дата премьеры (РФ): 15 марта 2018, «Каро-Премьер»

-06-10 16:53:53
Программа кодирования : mkvmerge v8.3.0 ('Over the Horizon') 64bit
Библиотека кодирования : libebml v1.3.1 + libmatroska v1.4.2

Видео
Идентификатор : 1
Формат : AVC
Формат/Информация : Advanced Video Codec
Профиль формата : High@L4.1
Параметр CABAC формата : Да
Параметр ReFrames формата : 10 кадров
Идентификатор кодека : V_MPEG4/ISO/AVC
Продолжительность : 1 ч. 57 м.
Битрейт : 1325 Кбит/сек
Ширина : 720 пикселей
Высота : 302 пикселя
Соотношение сторон : 2,40:1
Режим частоты кадров : Постоянный
Частота кадров : 23,976 (24000/1001) кадра/сек
Цветовое пространство : YUV
Субдискретизация насыщенности : 4:2:0
Битовая глубина : 8 бит
Тип развёртки : Прогрессивная
Бит/(Пиксели*Кадры) : 0.254
Размер потока : 1,09 Гбайт (75%)
Библиотека кодирования : x264 core 146 r2538 121396c
Настройки программы : cabac=1 / ref=10 / deblock=1:-2:-3 / analyse=0x3:0x133 / me=umh / subme=11 / psy=1 / psy_rd=0.97:0.06 / mixed_ref=1 / me_range=48 / chroma_me=1 / trellis=2 / 8x8dct=1 / cqm=0 / deadzone=21,11 / fast_pskip=1 / chroma_qp_offset=-3 / threads=6 / lookahead_threads=1 / sliced_threads=0 / nr=0 / decimate=1 / interlaced=0 / bluray_compat=0 / constrained_intra=0 / bframes=10 / b_pyramid=2 / b_adapt=2 / b_bias=0 / direct=3 / weightb=1 / open_gop=0 / weightp=2 / keyint=240 / keyint_min=23 / scenecut=40 / intra_refresh=0 / rc_lookahead=40 / rc=2pass / mbtree=0 / bitrate=1325 / ratetol=1.0 / qcomp=0.60 / qpmin=0 / qpmax=69 / qpstep=4 / cplxblur=20.0 / qblur=0.5 / vbv_maxrate=50000 / vbv_bufsize=62500 / nal_hrd=none / filler=0 / ip_ratio=1.40 / pb_ratio=1.30 / aq=1:1.00
Default : Да
Forced : Нет

Аудио
Идентификатор : 2
Формат : AC-3
Формат/Информация : Audio Coding 3
Расширение режима : CM (complete main)
Параметр Endianness формата : Big
Идентификатор кодека : A_AC3
Продолжительность : 1 ч. 57 м.
Вид битрейта : Постоянный
Битрейт : 448 Кбит/сек
Каналы : 6 каналов
Расположение каналов : Front: L C R, Side: L R, LFE
Частота : 48,0 КГц
Частота кадров : 31,250 кадров/сек (1536 spf)
Битовая глубина : 16 бит
Метод сжатия : С потерями
Размер потока : 378 Мбайт (25%)
Заголовок : License
Язык : Russian
Default : Да
Forced : Да

Текст #1
Идентификатор : 3
Формат : UTF-8
Идентификатор кодека : S_TEXT/UTF8
Идентификатор кодека/Информация : UTF-8 Plain Text
Продолжительность : 1 ч. 56 м.
Битрейт : 0 бит/сек
Count of elements : 24
Размер потока : 852 байт (0%)
Заголовок : Forced
Язык : Russian
Default : Да
Forced : Нет

Текст #2
Идентификатор : 4
Формат : UTF-8
Идентификатор кодека : S_TEXT/UTF8
Идентификатор кодека/Информация : UTF-8 Plain Text
Продолжительность : 1 ч. 56 м.
Битрейт : 40 бит/сек
Count of elements : 859
Размер потока : 34,9 Кбайт (0%)
Заголовок : Blu-ray CEE
Язык : Russian
Default : Нет
Forced : Нет

Текст #3
Идентификатор : 5
Формат : UTF-8
Идентификатор кодека : S_TEXT/UTF8
Идентификатор кодека/Информация : UTF-8 Plain Text
Продолжительность : 1 ч. 50 м.
Битрейт : 29 бит/сек
Count of elements : 859
Размер потока : 24,1 Кбайт (0%)
Заголовок : Full
Язык : English
Default : Нет
Forced : Нет

Текст #4
Идентификатор : 6
Формат : UTF-8
Идентификатор кодека : S_TEXT/UTF8
Идентификатор кодека/Информация : UTF-8 Plain Text
Продолжительность : 1 ч. 50 м.
Битрейт : 36 бит/сек
Count of elements : 1198
Размер потока : 29,4 Кбайт (0%)
Заголовок : SDH
Язык : English
Default : Нет
Forced : Нет

Меню
00:00:00.000 : :00:00:00.000
00:13:13.251 : :00:13:13.251
00:24:04.234 : :00:24:04.234
00:31:57.999 : :00:31:57.999
00:39:57.061 : :00:39:57.061
00:50:31.070 : :00:50:31.070
01:04:49.844 : :01:04:49.844
01:13:58.100 : :01:13:58.100
01:20:17.396 : :01:20:17.396
01:27:41.131 : :01:27:41.131
01:38:41.624 : :01:38:41.624
01:51:17.421 : :01:51:17.421

Скриншоты



x

Не пропустите

Великий уравнитель 2 / The Equalizer 2 (2018) BDRip от MegaPeer | Лицензия

СКАЧАТЬ TORRENT ФАЙЛ Информация о фильме Название: Великий уравнитель 2 Оригинальное название: The Equalizer 2 ...