Главная » Видео » Зарубежные фильмы » Судная ночь. Начало / The First Purge (2018) BDRemux 1080p от селезень | Лицензия

Судная ночь. Начало / The First Purge (2018) BDRemux 1080p от селезень | Лицензия

СКАЧАТЬ TORRENT ФАЙЛ

Информация о фильме
Название: Судная ночь. Начало
Оригинальное название: The First Purge
Год выхода: 2018
Жанр: Ужасы, фантастика, боевик, триллер
Режиссер: Герард МакМюррей
В ролях: И'лан Ноэль, Лекс Скотт Дэвис, Джойван Вейд, Магга, Патрик Дарро, Мариса Томей, Лорен Луна Велес, Кристен Солис, Ротими Пол, Мо

О фильме: Хотели бы вы жить в идеальном мире, где нет преступности, безработицы и войн? Единственная плата за такое счастливое будущее — это одна ночь абсолютного беззакония в году. Ночь, когда дозволено всё. Согласны поучаствовать в таком социальном эксперименте?

Страна: США
Студия: Blumhouse Productions, Perfect World Pictures, Platinum Dunes
Продолжительность: 01:37:25
Перевод: Дублированный | Лицензия

Качество: BDRemux 1080p
Видео: MPEG-4 AVC, 1920×1080, 25830 Kbit/s, 23.976 fps
Звук:
Аудио #01: 48 kHz, DTS, 5.1, 768 Kbps | Лицензия | RUS |

Аудио #02: 48 kHz, DTS-HD MA, 7.1, 6816 Kbps | Оригинал | ENG |

Субтитры: Русские (Forced, full), английские (Full,SDH)

MIGeneral
Unique ID : 285126243634436890541859443954160990590 (0xD681512A7DDD50A0F0E0EBED42B3797E)
Complete name : D:Video111The.First.Purge.2018.BDREMUX.1080p.selezen.mkv
Format : Matroska
Format version : Version 4
File size : 22.7 GiB
Duration : 1 h 37 min
Overall bit rate mode : Variable
Overall bit rate : 33.4 Mb/s
Movie name : The First Purge (2018) селезень
Encoded date : UTC 2018-11-04 22:10:35
Writing application : mkvmerge v28.0.0 ('Voice In My Head') 64-bit
Writing library : libebml v1.3.6 + libmatroska v1.4.9

Video
ID : 1
Format : AVC
Format/Info : Advanced Video Codec
Format profile : High@L4.1
Format settings : CABAC / 4 Ref Frames
Format settings, CABAC : Yes
Format settings, ReFrames : 4 frames
Codec ID : V_MPEG4/ISO/AVC
Duration : 1 h 37 min
Bit rate mode : Variable
Bit rate : 25.8 Mb/s
Maximum bit rate : 27.0 Mb/s
Width : 1 920 pixels
Height : 1 080 pixels
Display aspect ratio : 16:9
Frame rate mode : Constant
Frame rate : 23.976 (24000/1001) FPS
Color space : YUV
Chroma subsampling : 4:2:0
Bit depth : 8 bits
Scan type : Progressive
Bits/(Pixel*Frame) : 0.520
Stream size : 17.6 GiB (77%)
Language : English
Default : Yes
Forced : No

Audio #1
ID : 2
Format : DTS
Format/Info : Digital Theater Systems
Codec ID : A_DTS
Duration : 1 h 37 min
Bit rate mode : Constant
Bit rate : 768 kb/s
Channel(s) : 6 channels
Channel layout : C L R Ls Rs LFE
Sampling rate : 48.0 kHz
Frame rate : 93.750 FPS (512 SPF)
Bit depth : 24 bits
Compression mode : Lossy
Stream size : 535 MiB (2%)
Title : Dub [License] Language : Russian
Default : Yes
Forced : Yes

Audio #2
ID : 3
Format : DTS XLL X
Format/Info : Digital Theater Systems
Commercial name : DTS-HD Master Audio
Codec ID : A_DTS
Duration : 1 h 37 min
Bit rate mode : Variable
Bit rate : 6 816 kb/s
Channel(s) : 8 channels
Channel(s)_Original : Object Based
Channel layout : Object Based
Sampling rate : 48.0 kHz
Frame rate : 93.750 FPS (512 SPF)
Bit depth : 24 bits
Stream size : 4.64 GiB (20%)
Title : Original
Language : English
Default : No
Forced : No

Text #1
ID : 4
Format : UTF-8
Codec ID : S_TEXT/UTF8
Codec ID/Info : UTF-8 Plain Text
Duration : 1 h 34 min
Bit rate : 0 b/s
Count of elements : 14
Stream size : 418 Bytes (0%)
Title : Forced
Language : Russian
Default : Yes
Forced : Yes

Text #2
ID : 5
Format : UTF-8
Codec ID : S_TEXT/UTF8
Codec ID/Info : UTF-8 Plain Text
Duration : 1 h 36 min
Bit rate : 74 b/s
Count of elements : 1243
Stream size : 52.9 KiB (0%)
Title : Full
Language : Russian
Default : No
Forced : No

Text #3
ID : 6
Format : UTF-8
Codec ID : S_TEXT/UTF8
Codec ID/Info : UTF-8 Plain Text
Duration : 1 h 30 min
Bit rate : 59 b/s
Count of elements : 1244
Stream size : 39.4 KiB (0%)
Title : Full
Language : English
Default : No
Forced : No

Text #4
ID : 7
Format : UTF-8
Codec ID : S_TEXT/UTF8
Codec ID/Info : UTF-8 Plain Text
Duration : 1 h 33 min
Bit rate : 69 b/s
Count of elements : 1496
Stream size : 47.2 KiB (0%)
Title : SDH
Language : English
Default : No
Forced : No

Text #5
ID : 8
Format : UTF-8
Codec ID : S_TEXT/UTF8
Codec ID/Info : UTF-8 Plain Text
Duration : 1 h 36 min
Bit rate : 138 b/s
Count of elements : 1880
Stream size : 98.2 KiB (0%)
Title : SDH Colored
Language : English
Default : No
Forced : No

Menu
00:00:00.000 : en:Chapter 1
00:06:25.635 : en:Chapter 2
00:11:59.802 : en:Chapter 3
00:16:18.769 : en:Chapter 4
00:21:18.110 : en:Chapter 5
00:25:56.388 : en:Chapter 6
00:30:54.144 : en:Chapter 7
00:35:31.212 : en:Chapter 8
00:38:41.110 : en:Chapter 9
00:43:02.455 : en:Chapter 10
00:48:34.411 : en:Chapter 11
00:53:35.087 : en:Chapter 12
00:55:59.565 : en:Chapter 13
00:59:13.049 : en:Chapter 14
01:05:25.713 : en:Chapter 15
01:09:31.793 : en:Chapter 16
01:13:23.733 : en:Chapter 17
01:19:47.533 : en:Chapter 18
01:24:50.043 : en:Chapter 19
01:29:54.931 : en:Chapter 20

x

Не пропустите

Собибор (2018) BDRip от ExKinoRay | iTunes

СКАЧАТЬ TORRENT ФАЙЛ Собибор «Подвиг, который мы забыли» Год выпуска: 2018 Страна: Россия / Патриот ...