Главная » Видео » Зарубежные фильмы » Шпионы по соседству / Keeping Up with the Joneses (2016) BDRemux 1080p от ExKinoRay | iTunes

Шпионы по соседству / Keeping Up with the Joneses (2016) BDRemux 1080p от ExKinoRay | iTunes

СКАЧАТЬ TORRENT ФАЙЛ

Информация о фильме
Название: Шпионы по соседству
Оригинальное название: Keeping Up with the Joneses
Год выхода: 2016
Жанр: Боевик, комедия
Режиссер: Грег Моттола
В ролях: Зак Галифианакис, Айла Фишер, Джон Хэмм, Галь Гадот, Пэттон Освальт, Минг Жао, Мэтт Уолш, Мэрибет Монро, Майкл Лью, Кевин Данн

О фильме:
Супружеская пара из пригорода оказывается втянутой в международный шпионский заговор, когда обнаруживает, что их, казалось бы, идеальные новые соседи являются правительственными агентами.

Страна: США
Студия: Fox 2000 Pictures, MacDonald/Parkes Productions
Продолжительность:
Перевод: Дублированный | iTunes

Файл
Качество: BDRemux 1080p
Видео: MPEG-4 AVC, 1920×1080, 27.4 Мbit/s, 23.976 fps
Звук:
Аудио #01: 48 kHz, AC3, 5.1, 384 Kbps | Дублированный |

Аудио #02: 48 kHz, DTS-HD MA, 7.1, 4309 kbps | Оригинал |

Субтитры: Русские (forced, full), английские

MIОбщее
Уникальный идентификатор : 230928394210383157714149824207434690970 (0xADBB30E1918FCA41A9C04C5DBAEE319A)
Полное имя : F:VideoKeeping.Up.With.The.Joneses.2016.BDREMUX.1080p.ExKinoRay.mkv
Формат : Matroska
Версия формата : Version 4 / Version 2
Размер файла : 23,6 Гбайт
Продолжительность : 1 ч. 45 м.
Режим общего битрейта : Переменный
Общий поток : 32,1 Мбит/сек
Дата кодирования : UTC 2017-01-08 01:31:54
Программа кодирования : mkvmerge v8.3.0 ('Over the Horizon') 64bit
Библиотека кодирования : libebml v1.3.1 + libmatroska v1.4.2

Видео
Идентификатор : 1
Формат : AVC
Формат/Информация : Advanced Video Codec
Профиль формата : High@L4.1
Параметр CABAC формата : Да
Параметр ReFrames формата : 4 кадра
Идентификатор кодека : V_MPEG4/ISO/AVC
Продолжительность : 1 ч. 45 м.
Вид битрейта : Переменный
Битрейт : 27,4 Мбит/сек
Максимальный битрейт : 29,8 Мбит/сек
Ширина : 1920 пикселей
Высота : 1080 пикселей
Соотношение сторон : 16:9
Режим частоты кадров : Постоянный
Частота кадров : 23,976 (24000/1001) кадра/сек
Цветовое пространство : YUV
Субдискретизация насыщенности : 4:2:0
Битовая глубина : 8 бит
Тип развёртки : Прогрессивная
Бит/(Пиксели*Кадры) : 0.552
Размер потока : 20,2 Гбайт (85%)
Язык : English
Default : Да
Forced : Нет

Аудио #1
Идентификатор : 2
Формат : AC-3
Формат/Информация : Audio Coding 3
Расширение режима : CM (complete main)
Параметр Endianness формата : Big
Идентификатор кодека : A_AC3
Продолжительность : 1 ч. 45 м.
Вид битрейта : Постоянный
Битрейт : 384 Кбит/сек
Каналы : 6 каналов
Расположение каналов : Front: L C R, Side: L R, LFE
Частота : 48,0 КГц
Частота кадров : 31,250 кадров/сек (1536 spf)
Битовая глубина : 16 бит
Метод сжатия : С потерями
Размер потока : 289 Мбайт (1%)
Заголовок : Dub [iTunes] Язык : Russian
Default : Да
Forced : Нет

Аудио #2
Идентификатор : 3
Формат : DTS
Формат/Информация : Digital Theater Systems
Профиль формата : MA / ES Matrix / Core
Режим : 16
Параметр Endianness формата : Big
Идентификатор кодека : A_DTS
Продолжительность : 1 ч. 45 м.
Вид битрейта : Переменный / Постоянный / Постоянный
Битрейт : 4309 Кбит/сек / 1509 Кбит/сек / 1509 Кбит/сек
Каналы : 8 каналов / 7 каналов / 6 каналов
Расположение каналов : Front: L C R, Side: L R, Back: L R, LFE / Front: L C R, Side: L R, Back: C, LFE / Front: L C R, Side: L R, LFE
Частота : 48,0 КГц
Частота кадров : 93,750 кадра/сек (512 spf)
Битовая глубина : 24 бит
Метод сжатия : Без потерь / Lossy / Lossy
Размер потока : 3,17 Гбайт (13%)
Заголовок : Original
Язык : English
Default : Нет
Forced : Нет

Текст #1
Идентификатор : 4
Формат : UTF-8
Идентификатор кодека : S_TEXT/UTF8
Идентификатор кодека/Информация : UTF-8 Plain Text
Продолжительность : 1 ч. 44 м.
Битрейт : 1 бит/сек
Count of elements : 20
Размер потока : 1,11 Кбайт (0%)
Заголовок : Forced [iTunes] Язык : Russian
Default : Да
Forced : Нет

Текст #2
Идентификатор : 5
Формат : UTF-8
Идентификатор кодека : S_TEXT/UTF8
Идентификатор кодека/Информация : UTF-8 Plain Text
Продолжительность : 1 ч. 44 м.
Битрейт : 131 бит/сек
Count of elements : 2007
Размер потока : 100 Кбайт (0%)
Заголовок : Full [iTunes] Язык : Russian
Default : Нет
Forced : Нет

Текст #3
Идентификатор : 6
Формат : UTF-8
Идентификатор кодека : S_TEXT/UTF8
Идентификатор кодека/Информация : UTF-8 Plain Text
Продолжительность : 1 ч. 36 м.
Битрейт : 92 бит/сек
Count of elements : 1863
Размер потока : 65,2 Кбайт (0%)
Заголовок : Full [iTunes] Язык : English
Default : Нет
Forced : Нет

Меню
00:00:00.000 : en:00:00:00.000
00:03:43.473 : en:00:03:43.473
00:06:41.651 : en:00:06:41.651
00:09:55.845 : en:00:09:55.845
00:13:28.182 : en:00:13:28.182
00:17:06.025 : en:00:17:06.025
00:21:07.933 : en:00:21:07.933
00:26:02.311 : en:00:26:02.311
00:30:07.514 : en:00:30:07.514
00:33:56.743 : en:00:33:56.743
00:37:43.761 : en:00:37:43.761
00:40:59.457 : en:00:40:59.457
00:45:35.149 : en:00:45:35.149
00:49:00.312 : en:00:49:00.312
00:52:35.152 : en:00:52:35.152
00:55:59.189 : en:00:55:59.189
01:00:50.230 : en:01:00:50.230
01:04:33.244 : en:01:04:33.244
01:08:47.665 : en:01:08:47.665
01:12:04.654 : en:01:12:04.654
01:15:58.554 : en:01:15:58.554
01:19:31.809 : en:01:19:31.809
01:22:46.545 : en:01:22:46.545
01:25:43.972 : en:01:25:43.972
01:29:02.295 : en:01:29:02.295
01:31:44.874 : en:01:31:44.874
01:34:18.528 : en:01:34:18.528
01:37:32.680 : en:01:37:32.680

Автор релиза:

x

Не пропустите

Моана / Moana (2016) BDRip 1080p | iTunes

СКАЧАТЬ TORRENT ФАЙЛ Моана / Moana Страна: США Производство: Walt Disney Pictures, Walt Disney Animation ...