Главная » Видео » Зарубежные фильмы » Русалочка / The Little Mermaid (2018) WEB-DLRip-AVC от ExKinoRay | HDRezka Studio

Русалочка / The Little Mermaid (2018) WEB-DLRip-AVC от ExKinoRay | HDRezka Studio

СКАЧАТЬ TORRENT ФАЙЛ

Информация о фильме
Название: Русалочка
Оригинальное название: The Little Mermaid
Год выхода: 2018
Жанр: Фэнтези, драма, мелодрама, приключения
Режиссер: Блейк Дж. Харрис, Крис Бушар
В ролях: Джина Гершон, Уильям Моусли, Джаред Сэндлер, Поппи Дрейтон, Ширли МакЛейн, Лекси Колкер, Лорето Пералта, Джо Мари Пэйтон, Шэнна Коллинз, Хантер Гомез

О фильме :
Перед вами очередная новая интерпретация классического произведения Ганса Христиана Андерсена. Сюжет этого нового фэнтезийного фильма закручивается вокруг молодого репортёра и его племянницы. Однажды, приехав в небольшой городок, они совершенно случайно повстречали сказочное существо, о существовании которого вряд ли кто-то мог всерьёз задумываться. Это необычное открытие обернулось для героев фильма настоящим приключением. Теперь им предстоит столкнуться с различными проявлениями магии. Журналист и его племянница неожиданно окажутся в самой гуще событий. Они станут свидетелями удивительных явлений, вызванных добрыми и злыми созданиями, владеющими магическими способностями…

Страна: США
Студия: Conglomerate Media,Kingsway Productions
Продолжительность: 01:25:16
Перевод: Профессиональный многоголосый | HDRezka Studio

Файл
Формат: MKV
Качество: WEB-DLRip-AVC
Видео: MPEG-4 AVC , 800×356, ~ 1146 Кбит/с
Аудио:

AAC -HE, 2 ch, ~ 76 Кбит/с
Субтитры: Нет

MIОбщее
Уникальный идентификатор : 218166123160770489204609785872176289962 (0xA42144567B8D6956B20E3F9CC16E98AA)
Полное имя : D:MOVIESThe.Little.Mermaid.2018.ExKinoRay.mkv
Формат : Matroska
Версия формата : Version 4 / Version 2
Размер файла : 746 Мбайт
Продолжительность : 1 ч. 25 м.
Общий поток : 1223 Кбит/сек
Дата кодирования : UTC 2018-10-08 18:01:15
Программа кодирования : mkvmerge v15.0.0 ('Duel with the Devil') 64-bit
Библиотека кодирования : libebml v1.3.5 + libmatroska v1.4.5

Видео
Идентификатор : 1
Формат : AVC
Формат/Информация : Advanced Video Codec
Профиль формата : High@L4.1
Параметр CABAC формата : Да
Параметр RefFrames формата : 12 кадров
Идентификатор кодека : V_MPEG4/ISO/AVC
Продолжительность : 1 ч. 25 м.
Битрейт : 1146 Кбит/сек
Ширина : 800 пикселей
Высота : 356 пикселей
Соотношение сторон : 2,25:1
Режим частоты кадров : Постоянный
Частота кадров : 23,976 (24000/1001) кадра/сек
Цветовое пространство : YUV
Субдискретизация насыщенности : 4:2:0
Битовая глубина : 8 бит
Тип развёртки : Прогрессивная
Бит/(Пиксели*Кадры) : 0.168
Размер потока : 698 Мбайт (94%)
Библиотека кодирования : x264 core 152 r2851 ba24899
Настройки программы : cabac=1 / ref=12 / deblock=1:-3:-3 / analyse=0x3:0x133 / me=umh / subme=10 / psy=1 / psy_rd=1.00:0.15 / mixed_ref=1 / me_range=32 / chroma_me=1 / trellis=2 / 8x8dct=1 / cqm=0 / deadzone=21,11 / fast_pskip=0 / chroma_qp_offset=-3 / threads=6 / lookahead_threads=1 / sliced_threads=0 / nr=0 / decimate=0 / interlaced=0 / bluray_compat=0 / constrained_intra=0 / bframes=11 / b_pyramid=2 / b_adapt=2 / b_bias=0 / direct=3 / weightb=1 / open_gop=0 / weightp=2 / keyint=240 / keyint_min=23 / scenecut=40 / intra_refresh=0 / rc=2pass / mbtree=0 / bitrate=1146 / ratetol=1.0 / qcomp=0.60 / qpmin=0 / qpmax=69 / qpstep=4 / cplxblur=20.0 / qblur=0.5 / ip_ratio=1.40 / pb_ratio=1.30 / aq=1:1.00
Default : Да
Forced : Нет

Аудио
Идентификатор : 2
Формат : AAC
Формат/Информация : Advanced Audio Codec
Профиль формата : HE-AAC / LC
Идентификатор кодека : A_AAC
Продолжительность : 1 ч. 25 м.
Битрейт : 76,0 Кбит/сек
Каналы : 2 канала
Расположение каналов : Front: L R
Частота : 48,0 КГц / 24,0 КГц
Частота кадров : 23,438 кадра/сек (1024 SPF)
Метод сжатия : С потерями
Задержка видео : 31 мс.
Размер потока : 46,4 Мбайт (6%)
Default : Да
Forced : Нет

Меню
00:00:00.000 : en:1
00:24:39.000 : en:2
00:42:58.000 : en:3
01:01:58.000 : en:4
01:22:57.000 : en:5
Скриншоты

x

Не пропустите

Крис Коламбус, Нед Виззини — Дом секретов 2. Битва чудовищ (2018) МР3

СКАЧАТЬ TORRENT ФАЙЛ Название: Дом секретов 2. Битва чудовищ Автор: Крис Коламбус, Нед Виззини Год ...