Главная » Видео » Зарубежные фильмы » Рейс 666 / Flight 666 (2018) WEBRip | L2

Рейс 666 / Flight 666 (2018) WEBRip | L2

СКАЧАТЬ TORRENT ФАЙЛ

Информация о фильме
Название: Рейс 666
Оригинальное название: Flight 666
Год выхода: 2018
Жанр: Ужасы
Режиссер: Роб Палатин
В ролях: Рене Уиллетт, Пол Логан, Лиз Феннинг, Хосе Розете, Джозеф Майкл Харрис, Джесси Джеймс Д'Анджело, Джастин Хоффмайстер, Кларисса Тибо, Брендан Петриццо, Грег Фурман, Шамар Филипп, Элизабет Хардинг, Сет Ракос, Мэтью Рили, Шарон Дезире и другие
О фильме:
Пассажиров и экипаж самолета терроризируют потусторонние силы, которые угрожают жизни всех на борту. В борьбе за свою жизнь люди понимают, что это дело рук призраков, которые хотят отомстить своему убийце, но тот сделает все, чтобы остаться в живых.

Страна: США, Asylum
Продолжительность: 01:29:41
Перевод: Любительский (двухголосый закадровый) | HiWay Grope

Файл
Кодек: XviD
Качество: WEBRip
Видео: 720×400, 23.976 fps, ~1796 kbps, 0.26 bit/pixel
Звук:
Аудио rus: AC3, 48 kHz, 6 ch, 384 Kbps
Субтитры: отсутствуют

Реклама: присутствует

Семпл

MediaInfo:
General
Complete name : E:Flight 666.2018.WEBRip.HiWayGropeFlight 666.2018.WEBRip.HiWayGrope.avi
Format : AVI
Format/Info : Audio Video Interleave
File size : 1.37 GiB
Duration : 1h 29mn
Overall bit rate : 2 190 Kbps
Writing application : VirtualDubMod 1.5.10.3 (build 2550/release)
Writing library : VirtualDubMod build 2550/release

Video
ID : 0
Format : MPEG-4 Visual
Format profile : Advanced Simple@L5
Format settings, BVOP : 1
Format settings, QPel : No
Format settings, GMC : No warppoints
Format settings, Matrix : Default (MPEG)
Codec ID : XVID
Codec ID/Hint : XviD
Duration : 1h 29mn
Bit rate : 1 796 Kbps
Width : 720 pixels
Height : 400 pixels
Display aspect ratio : 16:9
Frame rate : 23.976 (23976/1000) fps
Color space : YUV
Chroma subsampling : 4:2:0
Bit depth : 8 bits
Scan type : Progressive
Compression mode : Lossy
Bits/(Pixel*Frame) : 0.260
Stream size : 1.13 GiB (82%)
Writing library : XviD 73

Audio
ID : 1
Format : AC-3
Format/Info : Audio Coding 3
Mode extension : CM (complete main)
Format settings, Endianness : Big
Codec ID : 2000
Duration : 1h 29mn
Bit rate mode : Constant
Bit rate : 384 Kbps
Channel(s) : 6 channels
Channel positions : Front: L C R, Side: L R, LFE
Sampling rate : 48.0 KHz
Frame rate : 31.250 fps (1536 spf)
Compression mode : Lossy
Stream size : 246 MiB (18%)
Alignment : Split accross interleaves
Interleave, duration : 42 ms (1.00 video frame)
Interleave, preload duration : 500 ms

Скриншоты

x

Не пропустите

Мэнди / Mandy (2018) WEB-DLRip от ExKinoRay l BadBajo

СКАЧАТЬ TORRENT ФАЙЛ Информация о фильме Название: Мэнди Оригинальное название: Mandy Год выхода: 2018 Жанр: ...