Главная » Видео » Зарубежные фильмы » Придержи тьму / Hold the Dark (2018) WEBRip-AVC от ExKinoRay | NewStudio

Придержи тьму / Hold the Dark (2018) WEBRip-AVC от ExKinoRay | NewStudio

СКАЧАТЬ TORRENT ФАЙЛ

Информация о фильме
Название: Придержи тьму
Оригинальное название: Hold the Dark
Год выхода: 2018
Жанр: Триллер, драма, детектив, криминал
Режиссер: Джереми Солнье
В ролях: Джеффри Райт, Беккам Кроуфорд, Райли Кио, Майкл Тэйлс, Исаак Берд, Джозеф Уайтберд, Зандус Сноу, Джулиан Шэмп, Александр Скарсгард, Конор Бору

О фильме :
Маленький городок на Аляске. Бесследно исчезает игравший на улице шестилетний мальчик. Поскольку в округе уже были случаи похищения детей волками, мать исчезнувшего Медора Слоун пишет письмо исследователю и специалисту по волкам Расселлу Кору с просьбой выследить и убить того волка, который забрал её сына. Женщина считает, что должна что-то предъявить мужу, когда тот вернётся с войны в Ираке. Приехав, Рассел слушает рассказы Медоры про тяжелое небо и тьму снаружи, а когда отправляется выслеживать волков, старая женщина говорит ему, что зло в другой стороне.

Страна: США
Студия: Addictive Pictures, Film Science, VisionChaos Productions
Продолжительность: 02:05:15
Перевод: Профессиональный (многоголосый, закадровый) | NewStudio

Файл
Формат: MKV
Качество: WEBRip-AVC
Видео: MPEG-4 AVC , 768×320, ~ 755 Кбит/с
Аудио:

AAC -HE, 2 ch, ~ 76 Кбит/с
Субтитры: Русские, английские

MIОбщее
Уникальный идентификатор : 184179773474936090183599648717930180582 (0x8A8FBBED3ABB837CBDA628BD5AFB2FE6)
Полное имя : D:MOVIESHold The Dark.2018.ExKinoRay.mkv
Формат : Matroska
Версия формата : Version 4 / Version 2
Размер файла : 738 Мбайт
Продолжительность : 2 ч. 5 м.
Общий поток : 824 Кбит/сек
Дата кодирования : UTC 2018-10-09 03:57:03
Программа кодирования : mkvmerge v15.0.0 ('Duel with the Devil') 64-bit
Библиотека кодирования : libebml v1.3.5 + libmatroska v1.4.5

Видео
Идентификатор : 1
Формат : AVC
Формат/Информация : Advanced Video Codec
Профиль формата : High@L4.1
Параметр CABAC формата : Да
Параметр RefFrames формата : 12 кадров
Идентификатор кодека : V_MPEG4/ISO/AVC
Продолжительность : 2 ч. 5 м.
Битрейт : 755 Кбит/сек
Ширина : 768 пикселей
Высота : 320 пикселей
Соотношение сторон : 2,40:1
Режим частоты кадров : Постоянный
Частота кадров : 23,976 (24000/1001) кадра/сек
Цветовое пространство : YUV
Субдискретизация насыщенности : 4:2:0
Битовая глубина : 8 бит
Тип развёртки : Прогрессивная
Бит/(Пиксели*Кадры) : 0.128
Размер потока : 668 Мбайт (91%)
Библиотека кодирования : x264 core 152 r2851kMod ba24899
Настройки программы : cabac=1 / ref=12 / deblock=1:-3:-3 / analyse=0x3:0x133 / me=umh / subme=10 / psy=1 / fade_compensate=0.00 / psy_rd=1.00:0.15 / mixed_ref=1 / me_range=32 / chroma_me=1 / trellis=2 / 8x8dct=1 / cqm=0 / deadzone=21,11 / fast_pskip=0 / chroma_qp_offset=-3 / threads=6 / lookahead_threads=1 / sliced_threads=0 / nr=0 / decimate=0 / interlaced=0 / bluray_compat=0 / constrained_intra=0 / bframes=11 / b_pyramid=2 / b_adapt=2 / b_bias=0 / direct=3 / weightb=1 / open_gop=0 / weightp=2 / keyint=240 / keyint_min=23 / scenecut=40 / intra_refresh=0 / rc_lookahead=40 / rc=2pass / mbtree=1 / bitrate=755 / ratetol=1.0 / qcomp=0.60 / qpmin=0 / qpmax=69 / qpstep=4 / cplxblur=20.0 / qblur=0.5 / ip_ratio=1.40 / aq=3:1.00
Default : Да
Forced : Нет

Аудио
Идентификатор : 2
Формат : AAC
Формат/Информация : Advanced Audio Codec
Профиль формата : HE-AAC / LC
Идентификатор кодека : A_AAC
Продолжительность : 2 ч. 5 м.
Битрейт : 76,0 Кбит/сек
Каналы : 2 канала
Расположение каналов : Front: L R
Частота : 48,0 КГц / 24,0 КГц
Частота кадров : 23,438 кадра/сек (1024 SPF)
Метод сжатия : С потерями
Задержка видео : 31 мс.
Размер потока : 68,1 Мбайт (9%)
Default : Да
Forced : Нет

Текст #1
Идентификатор : 3
Формат : UTF-8
Идентификатор кодека : S_TEXT/UTF8
Идентификатор кодека/Информация : UTF-8 Plain Text
Продолжительность : 2 ч. 0 м.
Битрейт : 32 бит/сек
ElementCount : 825
Размер потока : 28,7 Кбайт (0%)
Заголовок : Full
Язык : Russian
Default : Нет
Forced : Нет

Текст #2
Идентификатор : 4
Формат : UTF-8
Идентификатор кодека : S_TEXT/UTF8
Идентификатор кодека/Информация : UTF-8 Plain Text
Продолжительность : 1 ч. 56 м.
Битрейт : 22 бит/сек
ElementCount : 811
Размер потока : 18,7 Кбайт (0%)
Заголовок : Full
Язык : English
Default : Нет
Forced : Нет

Текст #3
Идентификатор : 5
Формат : UTF-8
Идентификатор кодека : S_TEXT/UTF8
Идентификатор кодека/Информация : UTF-8 Plain Text
Продолжительность : 1 ч. 59 м.
Битрейт : 26 бит/сек
ElementCount : 1003
Размер потока : 23,1 Кбайт (0%)
Заголовок : SDH
Язык : English
Default : Нет
Forced : Нет
Скриншоты

x

Не пропустите

Хищник / The Predator (2018) HDRip от MegaPeer | iTunes

СКАЧАТЬ TORRENT ФАЙЛ Информация о фильме Название: Хищник Оригинальное название: The Predator Год выпуска: 2018 ...