Главная » Видео » Зарубежные фильмы » Под покровом ночи / Nocturnal Animals (2016) WebRip-AVC | L1

Под покровом ночи / Nocturnal Animals (2016) WebRip-AVC | L1

СКАЧАТЬ TORRENT ФАЙЛ

Информация о фильме
Название: Под покровом ночи
Оригинальное название: Nocturnal Animals
Год выхода: 2016
Жанр: триллер, драма
Режиссер: Том Форд
В ролях: Эми Адамс, Джейк Джилленхол, Майкл Шеннон, Аарон Тейлор-Джонсон, Айла Фишер, Элли Бамбер, Арми Хаммер, Карл Глусман, Роберт Арамайо, Лора Линни

О фильме:
У Сьюзен роскошная жизнь в Лос-Анджелесе, прекрасный муж и собственная галерея. Но однажды она получает неожиданную посылку от бывшего супруга — он хотел бы встретиться, но сначала просит прочитать его новый роман. Сьюзен не подозревает, что как только она откроет рукопись, она вернется в прошлое, которое считала надежно укрытым под покровом ночи.


Страна: США
Продолжительность: 01:52:29
Перевод: Любительский (одноголосый) Solod

Файл
Кодек: h.264
Качество: WebRip-AVC
Видео: 1024×428 (2.40:1), 23.976 fps, AVC(H264), High@L4.1, 1600 kbps, 0.152 bpp
Звук: 48kHz, ac3 dolby digital, 2.0 ch, 256 kbbs
Субтитры: Корейский хардсаб
Реклама: Отсутствует

Семпл

Скриншоты

MI
General
Unique ID : 332402226773081510999305791975907937793 (0xFA12571827B3FAE089DEE1CB46244E01)
Complete name : nocturnal.animals.2016.1024.solod.rus.2.0.mkv
Format : Matroska
Format version : Version 4 / Version 2
File size : 1.46 GiB
Duration : 1 h 52 min
Overall bit rate : 1 857 kb/s
Movie name : Nocturnal Animals | 2016 | Solod
Encoded date : UTC 2017-01-06 23:31:15 / UTC 2016-12-24T07:03:02Z
Writing application : mkvmerge v9.7.1 ('Pandemonium') 64bit
Writing library : libebml v1.3.4 + libmatroska v1.4.5 / Lavf55.12.0
SUMMARY : Nocturnal.Animals.2016.1080p.HC.WEBRip.x264.AAC2.0-STUTTERSHIT

Video
ID : 1
Format : AVC
Format/Info : Advanced Video Codec
Format profile : High@L4
Format settings, CABAC : Yes
Format settings, ReFrames : 10 frames
Codec ID : V_MPEG4/ISO/AVC
Duration : 1 h 52 min
Bit rate : 1 600 kb/s
Width : 1 024 pixels
Height : 428 pixels
Display aspect ratio : 2.40:1
Original display aspect ratio : 2.40:1
Frame rate mode : Constant
Frame rate : 23.976 (24000/1001) FPS
Color space : YUV
Chroma subsampling : 4:2:0
Bit depth : 8 bits
Scan type : Progressive
Bits/(Pixel*Frame) : 0.152
Stream size : 1.23 GiB (84%)
Writing library : x264 core 148
Encoding settings : cabac=1 / ref=10 / deblock=1:-2:-2 / analyse=0x3:0x113 / me=umh / subme=11 / psy=1 / psy_rd=1,15:0,20 / mixed_ref=1 / me_range=24 / chroma_me=1 / trellis=2 / 8x8dct=1 / cqm=0 / deadzone=21,11 / fast_pskip=1 / chroma_qp_offset=-3 / threads=6 / lookahead_threads=1 / sliced_threads=0 / nr=0 / decimate=1 / interlaced=0 / bluray_compat=0 / constrained_intra=0 / bframes=11 / b_pyramid=2 / b_adapt=1 / b_bias=0 / direct=1 / weightb=1 / open_gop=0 / weightp=2 / keyint=240 / keyint_min=24 / scenecut=40 / intra_refresh=0 / rc_lookahead=40 / rc=2pass / mbtree=1 / bitrate=1600 / ratetol=1,0 / qcomp=0,60 / qpmin=0 / qpmax=69 / qpstep=4 / cplxblur=20,0 / qblur=0,5 / vbv_maxrate=62500 / vbv_bufsize=78125 / nal_hrd=none / filler=0 / ip_ratio=1,40 / aq=1:1,00
Default : Yes
Forced : No
Color range : Limited
Color primaries : BT.709
Transfer characteristics : BT.709
Matrix coefficients : BT.709
Statistics Tags Issue : mkvmerge v9.7.1 ('Pandemonium') 64bit 2017-01-06 23:31:15 / mkvmerge v9.7.1 ('Pandemonium') 64bit 2017-01-06 23:31:15 / UTC 2016-12-24T07:03:02Z
FromStats_BitRate : 1599397
FromStats_Duration : 01:52:29.785000000
FromStats_FrameCount : 161833
FromStats_StreamSize : 1349448679

Audio
ID : 2
Format : AC-3
Format/Info : Audio Coding 3
Mode extension : CM (complete main)
Format settings, Endianness : Big
Codec ID : A_AC3
Duration : 1 h 52 min
Bit rate mode : Constant
Bit rate : 256 kb/s
Channel(s) : 2 channels
Channel positions : Front: L R
Sampling rate : 48.0 kHz
Frame rate : 31.250 FPS (1536 spf)
Bit depth : 16 bits
Compression mode : Lossy
Delay relative to video : -83 ms
Stream size : 206 MiB (14%)
Title : vo solod
Language : Russian
Default : Yes
Forced : No
Statistics Tags Issue : mkvmerge v9.7.1 ('Pandemonium') 64bit 2017-01-06 23:31:15 / mkvmerge v9.7.1 ('Pandemonium') 64bit 2017-01-06 23:31:15 / UTC 2016-12-24T07:03:02Z
FromStats_BitRate : 256000
FromStats_Duration : 01:52:29.696000000
FromStats_FrameCount : 210928
FromStats_StreamSize : 215990272

x

Не пропустите

Ван-Пис / One Piece [601-800] (2013-2017) HDTVRip 720p | Persona99

СКАЧАТЬ TORRENT ФАЙЛ Информация о фильме Название: Ван-Пис Оригинальное название: One Piece Страна: Япония Год ...