Главная » Видео » Зарубежные фильмы » Первопроходец / Pioneer (2013) HDRip от Portablius | P2

Первопроходец / Pioneer (2013) HDRip от Portablius | P2

СКАЧАТЬ TORRENT ФАЙЛ

Информация о фильме
Название: Первопроходец
Оригинальное название: Pioneer
Год выхода: 2013
Жанр: триллер
Режиссер: Эрик Шёлдбьерг
В ролях: Уэс Бентли, Аксель Хенни, Стивен Лэнг, Стефани Сигман, Джонатан ЛаПалья, Эни Даль Торп, Ёрген Лангхелле, Андре Эриксен, Арни Линдтнер Нэсс, Йеркер Фальстрём

О фильме: Начало 1980-х гг. В Северном море обнаружены огромные запасы нефти и газа. В начале норвежского нефтяного бума власти намерены любой ценой доставлять на берег «черное» и «голубое золото» планеты по трубопроводу с глубины 500 метров, перед этим проводя разведку месторождения. Профессиональный дайвер Петтер, одержимый идеей достижения дна Норвежского моря, — полон решимости, силы и мужества, чтобы браться за самую опасную в мире работу и спуститься на эту глубину. Но неожиданная случайность меняет все. И теперь Петтер отправляется в опасное путешествие, в котором он теряет из вида того, кто дергает за ниточки в этой многомиллионной игре, постепенно понимая, что он оказывается на его пути и что его жизнь находится под угрозой.

Страна: Норвегия, Германия, Швеция, Франция, Финляндия
Продолжительность: 01:51:14
Перевод: Профессиональный (двухголосый, закадровый) студия NLS
Субтитры: Нет

Семпл

Файл
Кодек: XviD
Качество: HDRip
Видео: 688×288 (2.39:1), 24 fps, XviD build 73 ~803 kbps avg, 0.17 bit/pixel
Звук: 48 kHz, MPEG Layer 3, 2 ch, ~128.00 kbps avg

MediaInfoОбщее
Полное имя : Pioneer.2013.HDRip.ot.Portablius.avi
Формат : AVI
Формат/Информация : Audio Video Interleave
Размер файла : 749 Мбайт
Продолжительность : 1 ч. 51 м.
Общий поток : 941 Кбит/сек
Программа кодирования : VirtualDubMod 1.5.10.3 | www.virtualdub-fr.org || (build 2550/release)
Библиотека кодирования : VirtualDubMod build 2550/release

Видео
Идентификатор : 0
Формат : MPEG-4 Visual
Профиль формата : Advanced Simple@L5
Параметр BVOP формата : 1
Параметр QPel формата : Нет
Параметр GMC формата : Без точки перехода
Параметр матрицы формата : Выборочная
Идентификатор кодека : XVID
Идентификатор кодека/Подсказка : XviD
Продолжительность : 1 ч. 51 м.
Битрейт : 804 Кбит/сек
Ширина : 688 пикселей
Высота : 288 пикселей
Соотношение сторон : 2,40:1
Частота кадров : 24,000 кадра/сек
Цветовое пространство : YUV
Субдискретизация насыщенности : 4:2:0
Битовая глубина : 8 бит
Тип развёртки : Прогрессивная
Метод сжатия : С потерями
Бит/(Пиксели*Кадры) : 0.169
Размер потока : 639 Мбайт (85%)
Библиотека кодирования : XviD 73

Аудио
Идентификатор : 1
Формат : MPEG Audio
Версия формата : Version 1
Профиль формата : Layer 3
Идентификатор кодека : 55
Идентификатор кодека/Подсказка : MP3
Продолжительность : 1 ч. 51 м.
Вид битрейта : Постоянный
Битрейт : 128 Кбит/сек
Каналы : 2 канала
Частота : 48,0 КГц
Метод сжатия : С потерями
Размер потока : 102 Мбайт (14%)
Выравнивание : Соединение по промежуткам
Продолжительность промежутка : 42 мс. (1,00 видеокадр)
Время предзагрузки промежутка : 504 мс.
Библиотека кодирования : LAME3.99r
Настройки программы : -m s -V 4 -q 2 -lowpass 17 -b 128

Скриншоты






x

Не пропустите

Tails 2.9.1 [анонимный доступ в сети] [i386] (2016) PC

СКАЧАТЬ TORRENT ФАЙЛ Название: Tails Тип издания: LIVE-DVD, OpenSource Назначение: OS Разработчик: Tails Сообщество Год: ...