Главная » Видео » Зарубежные фильмы » Одарённая / Gifted (2017) BDRip 720p | Лицензия

Одарённая / Gifted (2017) BDRip 720p | Лицензия

СКАЧАТЬ TORRENT ФАЙЛ

Информация о фильме
Название: Одарённая
Оригинальное название: Gifted
Год выхода: 2017
Жанр: Драма
Режиссер: Марк Уэбб
В ролях: Крис Эванс, Маккенна Грэйс, Линдси Дункан, Дженни Слейт, Октавия Спенсер, Michael Kendall Kaplan, Джон М. Джексон, Гленн Пламмер, Джон Финн, Элизабет Марвел

О фильме:
Фрэнк Адлер живет в прибрежном городке во Флориде и воспитывает в одиночку свою необычайно одаренную племянницу Мэри. Но планы парня о спокойной школьной жизни для девочки рушатся, когда о математических способностях ребенка узнает грозная мать Фрэнка Эвелин. У бабушки свои представления о будущем внучки, и ради этого она готова даже разлучить Мэри с Фрэнком.

Страна: США
Студия: Dayday Films, FilmNation Entertainment, Fox Searchlight Pictures, Grade A Entertainment
Продолжительность: 01:41:10
Перевод: Дублированный | Blu-ray EUR

Файл
Качество: BDRip 720p
Формат: MKV
Кодек: MPEG-4 AVC
Видео: 1280×534 (2,40:1), 23,976 fps, MPEG-4 AVC ~ 7078 kbps avg, 0.432 bit/pixel
Аудио: DTS, 48,0 kHz, 6 ch, ~768.00 kbps avg | русский | Blu-ray EUR
Аудио: AC3, 48,0 kHz, 6 ch, ~448.00 kbps avg | русский | Blu-ray EUR
Аудио: AC3, 48,0 kHz, 6 ch, ~640.00 kbps avg | английский | Оригинал
Субтитры: Русские, английские

Инфо-файлОбщее
Уникальный идентификатор : 218846864665524200433125284193885049487 (0xA4A45F7C3CB9DB2B984DBBA3C1A1528F)
Полное имя : D:TorrentsЗавершенныеGifted.2017.720p.BluRay.x264.Rus.Eng.mkv
Формат : Matroska
Версия формата : Version 4 / Version 2
Размер файла : 6,32 Гбайт
Продолжительность : 1 ч. 41 м.
Общий поток : 8938 Кбит/сек
Название фильма : Одарённая (2017)
Дата кодирования : UTC 2017-10-26 02:44:00
Программа кодирования : mkvmerge v9.7.1 ('Pandemonium') 64bit
Библиотека кодирования : libebml v1.3.4 + libmatroska v1.4.5

Видео
Идентификатор : 1
Формат : AVC
Формат/Информация : Advanced Video Codec
Профиль формата : High@L4.1
Параметр CABAC формата : Да
Параметр ReFrames формата : 12 кадров
Идентификатор кодека : V_MPEG4/ISO/AVC
Продолжительность : 1 ч. 41 м.
Битрейт : 7078 Кбит/сек
Ширина : 1280 пикселей
Высота : 534 пикселя
Соотношение сторон : 2,40:1
Режим частоты кадров : Постоянный
Частота кадров : 23,976 (24000/1001) кадра/сек
Цветовое пространство : YUV
Субдискретизация насыщенности : 4:2:0
Битовая глубина : 8 бит
Тип развёртки : Прогрессивная
Бит/(Пиксели*Кадры) : 0.432
Размер потока : 5,00 Гбайт (79%)
Заголовок : Gifted.2017.720p.BluRay.Rus.Eng
Библиотека кодирования : x264 core 152 r2851 ba24899
Настройки программы : cabac=1 / ref=12 / deblock=1:-3:-3 / analyse=0x3:0x113 / me=umh / subme=10 / psy=1 / psy_rd=1.05:0.00 / mixed_ref=1 / me_range=32 / chroma_me=1 / trellis=2 / 8x8dct=1 / cqm=1 / deadzone=21,11 / fast_pskip=0 / chroma_qp_offset=-1 / threads=12 / lookahead_threads=2 / sliced_threads=0 / nr=0 / decimate=1 / interlaced=0 / bluray_compat=0 / constrained_intra=0 / bframes=8 / b_pyramid=2 / b_adapt=2 / b_bias=0 / direct=3 / weightb=1 / open_gop=0 / weightp=2 / keyint=230 / keyint_min=23 / scenecut=40 / intra_refresh=0 / rc_lookahead=40 / rc=crf / mbtree=0 / crf=14.6 / qcomp=0.65 / qpmin=10 / qpmax=69 / qpstep=4 / vbv_maxrate=62500 / vbv_bufsize=78125 / crf_max=0.0 / nal_hrd=none / filler=0 / ip_ratio=1.30 / pb_ratio=1.20 / aq=1:0.75
Язык : English
Default : Да
Forced : Нет

Аудио #1
Идентификатор : 2
Формат : DTS
Формат/Информация : Digital Theater Systems
Режим : 16
Параметр Endianness формата : Big
Идентификатор кодека : A_DTS
Продолжительность : 1 ч. 41 м.
Вид битрейта : Постоянный
Битрейт : 768 Кбит/сек
Каналы : 6 каналов
Расположение каналов : Front: L C R, Side: L R, LFE
Частота : 48,0 КГц
Частота кадров : 93,750 кадра/сек (512 spf)
Битовая глубина : 24 бит
Метод сжатия : С потерями
Размер потока : 556 Мбайт (9%)
Заголовок : Blu-ray EUR
Язык : Russian
Default : Да
Forced : Нет

Аудио #2
Идентификатор : 3
Формат : AC-3
Формат/Информация : Audio Coding 3
Параметр Endianness формата : Big
Идентификатор кодека : A_AC3
Продолжительность : 1 ч. 41 м.
Вид битрейта : Постоянный
Битрейт : 448 Кбит/сек
Каналы : 6 каналов
Расположение каналов : Front: L C R, Side: L R, LFE
Частота : 48,0 КГц
Частота кадров : 31,250 кадров/сек (1536 spf)
Битовая глубина : 16 бит
Метод сжатия : С потерями
Размер потока : 324 Мбайт (5%)
Язык : Russian
Default : Нет
Forced : Нет

Аудио #3
Идентификатор : 4
Формат : AC-3
Формат/Информация : Audio Coding 3
Параметр Endianness формата : Big
Идентификатор кодека : A_AC3
Продолжительность : 1 ч. 41 м.
Вид битрейта : Постоянный
Битрейт : 640 Кбит/сек
Каналы : 6 каналов
Расположение каналов : Front: L C R, Side: L R, LFE
Частота : 48,0 КГц
Частота кадров : 31,250 кадров/сек (1536 spf)
Битовая глубина : 16 бит
Метод сжатия : С потерями
Размер потока : 463 Мбайт (7%)
Язык : English
Default : Нет
Forced : Нет

Текст #1
Идентификатор : 5
Формат : UTF-8
Идентификатор кодека : S_TEXT/UTF8
Идентификатор кодека/Информация : UTF-8 Plain Text
Продолжительность : 1 ч. 40 м.
Битрейт : 100 бит/сек
ElementCount : 1516
Размер потока : 74,1 Кбайт (0%)
Заголовок : iTunes
Язык : Russian
Default : Нет
Forced : Нет

Текст #2
Идентификатор : 6
Формат : UTF-8
Идентификатор кодека : S_TEXT/UTF8
Идентификатор кодека/Информация : UTF-8 Plain Text
Продолжительность : 1 ч. 40 м.
Битрейт : 66 бит/сек
ElementCount : 1751
Размер потока : 48,5 Кбайт (0%)
Заголовок : Full
Язык : English
Default : Нет
Forced : Нет

Текст #3
Идентификатор : 7
Формат : UTF-8
Идентификатор кодека : S_TEXT/UTF8
Идентификатор кодека/Информация : UTF-8 Plain Text
Продолжительность : 1 ч. 40 м.
Битрейт : 69 бит/сек
ElementCount : 1836
Размер потока : 51,1 Кбайт (0%)
Заголовок : SDH
Язык : English
Default : Нет
Forced : Нет

Текст #4
Идентификатор : 8
Формат : UTF-8
Идентификатор кодека : S_TEXT/UTF8
Идентификатор кодека/Информация : UTF-8 Plain Text
Продолжительность : 1 ч. 40 м.
Битрейт : 87 бит/сек
ElementCount : 1837
Размер потока : 64,3 Кбайт (0%)
Заголовок : SDH-Colored
Язык : English
Default : Нет
Forced : Нет

Меню
00:00:00.000 : en:Chapter 1
00:04:36.318 : en:Chapter 2
00:07:49.302 : en:Chapter 3
00:12:55.525 : en:Chapter 4
00:18:50.004 : en:Chapter 5
00:22:23.008 : en:Chapter 6
00:29:13.085 : en:Chapter 7
00:33:18.830 : en:Chapter 8
00:37:56.399 : en:Chapter 9
00:42:57.825 : en:Chapter 10
00:45:34.357 : en:Chapter 11
00:48:06.675 : en:Chapter 12
00:50:58.806 : en:Chapter 13
00:54:31.685 : en:Chapter 14
00:59:05.959 : en:Chapter 15
01:03:52.787 : en:Chapter 16
01:08:44.787 : en:Chapter 17
01:14:52.279 : en:Chapter 18
01:19:29.348 : en:Chapter 19
01:23:44.770 : en:Chapter 20
01:26:54.751 : en:Chapter 21
01:29:38.832 : en:Chapter 22
01:32:49.272 : en:Chapter 23
01:35:36.648 : en:Chapter 24
Скриншоты



x

Не пропустите

Полдарк / Poldark [04×01-06 из 08] (2018) HDTVRip 1080p | BaibaKo

СКАЧАТЬ TORRENT ФАЙЛ Информация о фильме Название: Полдарк Оригинальное название: Poldark Год выпуска: 2018 Жанр: ...