Главная » Видео » Зарубежные фильмы » Новая эра Z / The Girl with All the Gifts (2016) HDTVRip-AVC от OlLanDGroup | D

Новая эра Z / The Girl with All the Gifts (2016) HDTVRip-AVC от OlLanDGroup | D

СКАЧАТЬ TORRENT ФАЙЛ

Информация о фильме
Название: Новая эра Z
Оригинальное название: The Girl with All the Gifts
Год выпуска: 2016
Жанр: ужасы, триллер, драма
Режиссер: Колм МакКарти
В ролях: Джемма Артертон, Гленн Клоуз, Пэдди Консидайн, Анамария Маринка, Доминик Типпер, Сенниа Нануа, Лобна Фьютерс, Дэниэл Иган

О фильме:
Война миров не закончилась. Планету поразил страшный вирус. На людей стали нападать инфицированные особи, поставив человечество на грань исчезновения. Единственная надежда — второе поколение заражённых, опасных, но обладающих феноменальным, более высоким, чем у людей, интеллектом. Они — ключ к созданию спасительной вакцины. Поэтому их держат в специальном бункере, оберегая от контактов с внешним миром. Но однажды ситуация выходит из-под контроля…

Выпущено: США, Великобритания, Altitude Film Entertainment, Altitude Film Sales, BFI Film Fund, Poison Chef
Продолжительность: 01:46:09
Перевод: Профессиональный (полное дублирование) | КиноПремиум HD

Файл
Кодек: х264
Качество: HDTVRip-AVC
Видео: MPEG-4 AVC, 1774 Кбит/с, 720×360
Аудио: Русский (AC3, 2 ch, 192 Кбит/с)

Инфо файлОбщее
Уникальный идентификатор : 230162723568813585642553069060705204096 (0xAD27BA6766EC66D8A1FAF426B4FFB780)
Полное имя : D:ВидеоThe.Girl.With.All.The.Gifts.2016.HDTVRip-AVC 1.46 OlLanDGroup.mkv
Формат : Matroska
Версия формата : Version 4 / Version 2
Размер файла : 1,46 Гбайт
Продолжительность : 1 ч. 46 м.
Общий поток : 1966 Кбит/сек
Название фильма : The.Girl.With.All.The.Gifts.2016.HDTVRip-AVC 1.46 OlLanDGroup
Дата кодирования : UTC 2017-01-07 09:53:22
Программа кодирования : mkvmerge v9.7.1 ('Pandemonium') 64bit
Библиотека кодирования : libebml v1.3.4 + libmatroska v1.4.5
DURATION : 01:46:08.864000000
NUMBER_OF_FRAMES : 199027
NUMBER_OF_BYTES : 152852736
_STATISTICS_WRITING_APP : mkvmerge v9.7.1 ('Pandemonium') 64bit
_STATISTICS_WRITING_DATE_UTC : 2017-01-07 09:53:22
_STATISTICS_TAGS : BPS DURATION NUMBER_OF_FRAMES NUMBER_OF_BYTES

Видео
Идентификатор : 1
Формат : AVC
Формат/Информация : Advanced Video Codec
Профиль формата : High@L4.1
Параметр CABAC формата : Да
Параметр ReFrames формата : 10 кадров
Идентификатор кодека : V_MPEG4/ISO/AVC
Продолжительность : 1 ч. 46 м.
Битрейт : 1774 Кбит/сек
Ширина : 720 пикселей
Высота : 360 пикселей
Соотношение сторон : 2,000
Режим частоты кадров : Постоянный
Частота кадров : 25,000 кадров/сек
Цветовое пространство : YUV
Субдискретизация насыщенности : 4:2:0
Битовая глубина : 8 бит
Тип развёртки : Прогрессивная
Бит/(Пиксели*Кадры) : 0.274
Размер потока : 1,29 Гбайт (88%)
Заголовок : by Vovan366
Библиотека кодирования : x264 core 146 r2538 121396c
Настройки программы : cabac=1 / ref=10 / deblock=1:-2:-2 / analyse=0x3:0x113 / me=umh / subme=10 / psy=1 / psy_rd=1.00:0.05 / mixed_ref=1 / me_range=32 / chroma_me=1 / trellis=2 / 8x8dct=1 / cqm=0 / deadzone=21,11 / fast_pskip=0 / chroma_qp_offset=-3 / threads=6 / lookahead_threads=1 / sliced_threads=0 / nr=0 / decimate=0 / interlaced=0 / bluray_compat=0 / constrained_intra=0 / bframes=10 / b_pyramid=2 / b_adapt=2 / b_bias=0 / direct=3 / weightb=1 / open_gop=0 / weightp=2 / keyint=250 / keyint_min=25 / scenecut=40 / intra_refresh=0 / rc_lookahead=40 / rc=2pass / mbtree=0 / bitrate=1774 / ratetol=1.0 / qcomp=0.60 / qpmin=0 / qpmax=69 / qpstep=4 / cplxblur=20.0 / qblur=0.5 / vbv_maxrate=14000 / vbv_bufsize=14000 / nal_hrd=none / filler=0 / ip_ratio=1.40 / pb_ratio=1.30 / aq=1:1.00
Язык : English
Default : Да
Forced : Нет
Основные цвета : BT.709
Характеристики трансфера : BT.709
Коэффициенты матрицы : BT.709

Аудио
Идентификатор : 2
Формат : AC-3
Формат/Информация : Audio Coding 3
Расширение режима : CM (complete main)
Параметр Endianness формата : Big
Идентификатор кодека : A_AC3
Продолжительность : 1 ч. 46 м.
Вид битрейта : Постоянный
Битрейт : 192 Кбит/сек
Каналы : 2 канала
Расположение каналов : Front: L R
Частота : 48,0 КГц
Битовая глубина : 16 бит
Метод сжатия : С потерями
Размер потока : 146 Мбайт (10%)
Язык : Russian
Default : Да
Forced : Нет

Скриншоты



x

Не пропустите

Джереми Реннер стал проводником Элизабет Олсен

Опубликован первый трейлер детективного триллера Тэйлора Шеридана «Ветреная река». Картина расскажет о Кори Ламберте (Джереми ...