Главная » Видео » Зарубежные фильмы » Не открывай глаза / Don’t Open Your Eyes (2018) WEBRip 720p | L2

Не открывай глаза / Don’t Open Your Eyes (2018) WEBRip 720p | L2

СКАЧАТЬ TORRENT ФАЙЛ

Информация о фильме
Название: Не открывай глаза
Оригинальное название: Don't Open Your Eyes
Год выхода: 2018
Жанр: Ужасы, драма
Режиссер: Дмитрий Юн
В ролях: Том Кемнитц мл., Гергана Меллин, Джэми Кэрролл, Трэвис Кокс и другие
О фильме:
Медбрат-стажёр приезжает на несколько дней в отдалённый загородный дом, чтобы поухаживать за престарелой умирающей женщиной. Вначале он терпеливо сносит все её нападки и оскорбления, но через какое-то время начинает понимать, что её дурной нрав — это не просто следствие старческого слабоумия, а результат тёмного прошлого, которое хранит немало зловещих тайн.

Страна: США, Red Lift Productions,Eastward Films
Продолжительность: 01:27:23
Перевод: Любительский (двухголосый закадровый) | HiWay Grope

Файл
Кодек: MPEG-4 AVC/x.264
Качество: WEBRip 720p
Видео: 1280×528, 25.000 fps, ~3910 kbps, 0.231 bit/pixel
Звук:
Аудио rus: AC3, 48 kHz, 2 ch, 192 Kbps
Субтитры: отсутствуют

Реклама: присутствует

Семпл

MediaInfo:
General
Unique ID : 219836899169720422426771059623218199926 (0xA5630BF47AE78524A91AB7469EB93D76)
Complete name : D:Dont.Open.Your.Eyes.2018.720p.WEBRip.HiWayGropeDont.Open.Your.Eyes.2018.720p.WEBRip.HiWayGrope.mkv
Format : Matroska
Format version : Version 2
File size : 2.56 GiB
Duration : 1 h 27 min
Overall bit rate : 4 186 kb/s
Encoded date : UTC 2018-10-08 22:16:51
Writing application : mkvmerge v3.3.0 ('Language') built on Mar 24 2010 14:59:24
Writing library : libebml v0.8.0 + libmatroska v0.9.0

Video
ID : 1
Format : AVC
Format/Info : Advanced Video Codec
Format profile : Main@L3.1
Format settings : CABAC / 3 Ref Frames
Format settings, CABAC : Yes
Format settings, RefFrames : 3 frames
Codec ID : V_MPEG4/ISO/AVC
Duration : 1 h 27 min
Bit rate : 3 910 kb/s
Width : 1 280 pixels
Height : 528 pixels
Display aspect ratio : 2.40:1
Frame rate mode : Constant
Frame rate : 25.000 FPS
Standard : PAL
Color space : YUV
Chroma subsampling : 4:2:0
Bit depth : 8 bits
Scan type : Progressive
Bits/(Pixel*Frame) : 0.231
Stream size : 2.39 GiB (93%)
Language : English
Default : Yes
Forced : No
Color range : Limited
Color primaries : BT.601 NTSC
Transfer characteristics : BT.601
Matrix coefficients : BT.601

Audio
ID : 2
Format : AC-3
Format/Info : Audio Coding 3
Codec ID : A_AC3
Duration : 1 h 27 min
Bit rate mode : Constant
Bit rate : 192 kb/s
Channel(s) : 2 channels
Channel positions : Front: L R
Sampling rate : 48.0 kHz
Frame rate : 31.250 FPS (1536 SPF)
Bit depth : 16 bits
Compression mode : Lossy
Stream size : 120 MiB (5%)
Service kind : Complete Main
Default : Yes
Forced : No

Скриншоты

x

Не пропустите

Дальше по коридору / Down a Dark Hall (2018) BDRip 1080p | HDrezka Studio

СКАЧАТЬ TORRENT ФАЙЛ Информация о фильме Название: Дальше по коридору Оригинальное название: Down a Dark ...