Главная » Видео » Зарубежные фильмы » Не оставляй следов / Leave No Trace (2018) BDRip 720p | HDrezka Studio

Не оставляй следов / Leave No Trace (2018) BDRip 720p | HDrezka Studio

СКАЧАТЬ TORRENT ФАЙЛ

Информация о фильме
Название: Не оставляй следов
Оригинальное название: Leave No Trace
Год выхода: 2018
Жанр: Драма
Режиссер: Дебра Граник
В ролях: Томасин МакКензи, Бен Фостер, Джеффри Риффлард, Майкл Дрэйпер, Дерек Джон Дрешер, Питер Симпсон, Эрик МакГлотлин, Дэна Милликэн, Райан Столяр

О фильме:
Уилл и Том — отец и дочь, которые живут в лесопарке, добровольно изолировав себя от общества. Уилл считает, что лучше пить дождевую воду и питаться дарами природы, лишь изредка предпринимая краткосрочные вылазки в город, чем жить среди людей. Но по закону бездомным быть дозволяется, а жить на общественной земле — нет. После того, как рейнджеры и соцработники обнаруживают нелегальных Робинзонов, Уиллу и Том приходится покинуть насиженное место.

Страна: США, Канада
Студия: Bron Studios, First Look Media, Harrison Productions
Продолжительность: 01:49:08
Перевод: Профессиональный (многоголосый, закадровый) | HDRezka Studio

Файл
Качество: BDRip 720p
Формат: MKV
Кодек: MPEG-4 AVC
Видео: 1280×692 (1.85:1), 23,976 fps, MPEG-4 AVC ~ 5537 Kbps avg, 0.261 bit/pixel
Аудио: AC3, 48 kHz, 2 ch, ~192.00 kbps avg | русский |HDRezka Studio
Аудио: DTS, 48 kHz, 6 ch, ~1509.00 kbps avg | английский | Оригинал

Субтитры: Русские (полные), Английские (Full, SDH)
Семпл

Инфо-файлОбщее
Уникальный идентификатор : 208884055503772348555956886527468207378 (0x9D259B11C66B0B09EC2888D1BB657D12)
Полное имя : Leave.No.Trace.2018.BluRay.720p.DD 2.0.x264.mkv
Формат : Matroska
Версия формата : Version 4 / Version 2
Размер файла : 5,52 Гбайт
Продолжительность : 1 ч. 49 м.
Общий поток : 7241 Кбит/сек
Название фильма : Не оставляй следов / Leave No Trace (.2018)
Дата кодирования : UTC 2018-10-08 04:24:17
Программа кодирования : mkvmerge v27.0.0 ('Metropolis') 64-bit
Библиотека кодирования : libebml v1.3.6 + libmatroska v1.4.9

Видео
Идентификатор : 1
Формат : AVC
Формат/Информация : Advanced Video Codec
Профиль формата : High@L4.1
Настройки формата : CABAC / 9 Ref Frames
Параметр CABAC формата : Да
Параметр RefFrames формата : 9 кадров
Идентификатор кодека : V_MPEG4/ISO/AVC
Продолжительность : 1 ч. 49 м.
Битрейт : 5537 Кбит/сек
Ширина : 1280 пикселей
Высота : 692 пикселя
Соотношение сторон : 1,85:1
Режим частоты кадров : Постоянный
Частота кадров : 23,976 (24000/1001) кадра/сек
Цветовое пространство : YUV
Субдискретизация насыщенности : 4:2:0
Битовая глубина : 8 бит
Тип развёртки : Прогрессивная
Бит/(Пиксели*Кадры) : 0.261
Размер потока : 4,22 Гбайт (76%)
Заголовок : Leave.No.Trace.2018.BluRay.720p.DD 2.0.x264
Библиотека кодирования : x264 core 155 r2901 7d0ff22
Настройки программы : cabac=1 / ref=9 / deblock=1:-3:-3 / analyse=0x3:0x113 / me=umh / subme=10 / psy=1 / psy_rd=1.00:0.05 / mixed_ref=1 / me_range=32 / chroma_me=1 / trellis=2 / 8x8dct=1 / cqm=0 / deadzone=21,11 / fast_pskip=0 / chroma_qp_offset=-2 / threads=18 / lookahead_threads=3 / sliced_threads=0 / nr=0 / decimate=1 / interlaced=0 / bluray_compat=0 / constrained_intra=0 / bframes=8 / b_pyramid=2 / b_adapt=2 / b_bias=0 / direct=3 / weightb=1 / open_gop=0 / weightp=2 / keyint=250 / keyint_min=23 / scenecut=40 / intra_refresh=0 / rc_lookahead=40 / rc=crf / mbtree=0 / crf=17.0 / qcomp=0.60 / qpmin=0 / qpmax=69 / qpstep=4 / vbv_maxrate=30000 / vbv_bufsize=30000 / crf_max=0.0 / nal_hrd=none / filler=0 / ip_ratio=1.40 / pb_ratio=1.30 / aq=3:1.00
Default : Да
Forced : Нет
Цветовой диапазон : Limited
Коэффициенты матрицы : BT.709

Аудио #1
Идентификатор : 2
Формат : AC-3
Формат/Информация : Audio Coding 3
Идентификатор кодека : A_AC3
Продолжительность : 1 ч. 49 м.
Вид битрейта : Постоянный
Битрейт : 192 Кбит/сек
Каналы : 2 канала
Расположение каналов : Front: L R
Частота : 48,0 КГц
Частота кадров : 31,250 кадров/сек (1536 SPF)
Битовая глубина : 16 бит
Метод сжатия : С потерями
Размер потока : 150 Мбайт (3%)
Заголовок : MVO [HDRezka Studio] Язык : Russian
Default : Да
Forced : Да

Аудио #2
Идентификатор : 3
Формат : DTS
Формат/Информация : Digital Theater Systems
Идентификатор кодека : A_DTS
Продолжительность : 1 ч. 49 м.
Вид битрейта : Постоянный
Битрейт : 1509 Кбит/сек
Каналы : 6 каналов
Расположение каналов : Front: L C R, Side: L R, LFE
Частота : 48,0 КГц
Частота кадров : 93,750 кадра/сек (512 SPF)
Битовая глубина : 24 бит
Метод сжатия : С потерями
Размер потока : 1,15 Гбайт (21%)
Язык : English
Default : Нет
Forced : Нет

Текст #1
Идентификатор : 4
Формат : UTF-8
Идентификатор кодека : S_TEXT/UTF8
Идентификатор кодека/Информация : UTF-8 Plain Text
Продолжительность : 1 ч. 39 м.
Битрейт : 54 бит/сек
ElementCount : 773
Размер потока : 39,9 Кбайт (0%)
Заголовок : Full
Язык : Russian
Default : Нет
Forced : Нет

Текст #2
Идентификатор : 5
Формат : UTF-8
Идентификатор кодека : S_TEXT/UTF8
Идентификатор кодека/Информация : UTF-8 Plain Text
Продолжительность : 1 ч. 42 м.
Битрейт : 32 бит/сек
ElementCount : 793
Размер потока : 24,3 Кбайт (0%)
Заголовок : Full
Язык : English
Default : Нет
Forced : Нет

Текст #3
Идентификатор : 6
Формат : UTF-8
Идентификатор кодека : S_TEXT/UTF8
Идентификатор кодека/Информация : UTF-8 Plain Text
Продолжительность : 1 ч. 46 м.
Битрейт : 38 бит/сек
ElementCount : 1002
Размер потока : 30,3 Кбайт (0%)
Заголовок : SDH
Язык : English
Default : Нет
Forced : Нет

Меню
00:00:00.000 : en:Chapter 01
00:06:03.863 : en:Chapter 02
00:12:19.113 : en:Chapter 03
00:17:38.974 : en:Chapter 04
00:24:16.079 : en:Chapter 05
00:31:44.569 : en:Chapter 06
00:37:35.878 : en:Chapter 07
00:43:43.662 : en:Chapter 08
00:46:33.624 : en:Chapter 09
00:51:24.498 : en:Chapter 10
00:58:27.212 : en:Chapter 11
01:02:13.604 : en:Chapter 12
01:07:40.056 : en:Chapter 13
01:11:50.347 : en:Chapter 14
01:17:27.684 : en:Chapter 15
01:22:42.874 : en:Chapter 16
01:28:44.485 : en:Chapter 17
01:34:25.868 : en:Chapter 18
01:36:38.542 : en:Chapter 19
01:43:31.914 : en:Chapter 20Скриншоты

x

Не пропустите

Без меня (2018) HDTV 1080i

СКАЧАТЬ TORRENT ФАЙЛ Информация о фильме Оригинальное название: Без меня Год выпуска: 2018 Жанр: Драма, ...