Главная » House » Не дыши / Don’t Breathe (2016) BDRip 1080p | D, A

Не дыши / Don’t Breathe (2016) BDRip 1080p | D, A

СКАЧАТЬ TORRENT ФАЙЛ

Информация о фильме
Название: Не дыши
Оригинальное название: Don't Breathe
Год выхода: 2016
Жанр: Ужасы, Триллер, Криминал
Режиссер: Федерико Альварес
В ролях: Стивен Лэнг, Джейн Леви, Дилан Миннетт, Дэниэл Дзоватто, Эмма Берковичи, Франциска Тёрёчик, Кристиан Сахиа, Катя Бокор, Сергей Онопко, Оливия Гиллис.

О фильме:
Грабители забираются в дом одинокого слепого старика с целью украсть огромную сумму, которая, по слухам, спрятана где-то внутри. Казалось бы — что может быть проще, чем вынести деньги из дома практически беспомощного человека. Но они жестоко ошибаются: преследуемый становится преследователем. И тайна, которую он хранит, гораздо страшнее, чем обычные пенсионные накопления.


Страна: США
Студия: Ghost House Pictures
Продолжительность: 01:28:32
Перевод: Дублированный (BD CEE), Авторский (одноголосый, закадровый) (Д.Есарев)

Файл
Кодек: MPEG4 Video (H264)
Качество: BDRip 1080p | D, A
Видео: 1920×800, 6435 Kbps, 23.976fp
Звук:
Аудио 1: AC3, 6 ch, 640 kbps, CBR — Русский, Дубляж
Аудио 2: AC3, 6 ch, 640 kbps, CBR — Русский, Д.Есарев
Аудио 3: AC3, 6 ch, 640 kbps, CBR — Английский
Субтитры: Русский (форс, полные), Английский (полные)

Семпл
Mediainfo x264 [info]: frame I:782 Avg QP:15.10 size:180969
x264 [info]: frame P:27448 Avg QP:17.87 size: 62010
x264 [info]: frame B:99138 Avg QP:19.76 size: 24500
x264 [info]: consecutive B-frames: 2.1% 3.2% 5.9% 20.4% 18.0% 32.3% 10.8% 6.9% 0.5%

Общее
Уникальный идентификатор : 219498835675569726706631158772203575340 (0xA521F0234BBA2176A30CCA1D7A98D82C)
Полное имя : Dont Breathe.2016.BDRip.1080p.mkv
Формат : Matroska
Версия формата : Version 2
Размер файла : 5,17 Гбайт
Продолжительность : 1 ч. 28 м.
Общий поток : 8357 Кбит/сек
Название фильма : Dont Breathe.2016.BDRip.1080p
Дата кодирования : UTC 2017-01-06 11:34:03
Программа кодирования : mkvmerge v4.0.0 ('The Stars were mine') сборка от Jun 6 2010 16:18:42
Библиотека кодирования : libebml v1.0.0 + libmatroska v1.0.0

Видео
Идентификатор : 1
Формат : AVC
Формат/Информация : Advanced Video Codec
Профиль формата : High@L4.1
Параметр CABAC формата : Да
Параметр ReFrames формата : 5 кадров
Идентификатор кодека : V_MPEG4/ISO/AVC
Продолжительность : 1 ч. 28 м.
Битрейт : 6435 Кбит/сек
Ширина : 1920 пикселей
Высота : 800 пикселей
Соотношение сторон : 2,40:1
Режим частоты кадров : Постоянный
Частота кадров : 23,976 (23976/1000) кадра/сек
Цветовое пространство : YUV
Субдискретизация насыщенности : 4:2:0
Битовая глубина : 8 бит
Тип развёртки : Прогрессивная
Бит/(Пиксели*Кадры) : 0.175
Размер потока : 3,88 Гбайт (75%)
Заголовок : rip by -=walledol=-
Библиотека кодирования : x264 core 148 r2721 72d53ab
Настройки программы : cabac=1 / ref=5 / deblock=1:-3:-3 / analyse=0x3:0x133 / me=umh / subme=10 / psy=1 / psy_rd=1.00:0.15 / mixed_ref=1 / me_range=32 / chroma_me=1 / trellis=2 / 8x8dct=1 / cqm=0 / deadzone=21,11 / fast_pskip=0 / chroma_qp_offset=-3 / threads=6 / lookahead_threads=1 / sliced_threads=0 / nr=0 / decimate=1 / interlaced=0 / bluray_compat=0 / constrained_intra=0 / bframes=8 / b_pyramid=2 / b_adapt=2 / b_bias=0 / direct=3 / weightb=1 / open_gop=0 / weightp=2 / keyint=240 / keyint_min=23 / scenecut=40 / intra_refresh=0 / rc_lookahead=60 / rc=2pass / mbtree=1 / bitrate=6435 / ratetol=1.0 / qcomp=0.60 / qpmin=0 / qpmax=69 / qpstep=4 / cplxblur=20.0 / qblur=0.5 / ip_ratio=1.40 / aq=3:0.70
Язык : English
Default : Нет
Forced : Нет

Аудио #1
Идентификатор : 2
Формат : AC-3
Формат/Информация : Audio Coding 3
Расширение режима : CM (complete main)
Параметр Endianness формата : Big
Идентификатор кодека : A_AC3
Продолжительность : 1 ч. 28 м.
Вид битрейта : Постоянный
Битрейт : 640 Кбит/сек
Каналы : 6 каналов
Расположение каналов : Front: L C R, Side: L R, LFE
Частота : 48,0 КГц
Частота кадров : 31,250 кадров/сек (1536 spf)
Битовая глубина : 16 бит
Метод сжатия : С потерями
Размер потока : 405 Мбайт (8%)
Заголовок : DUB
Язык : Russian
Default : Да
Forced : Нет

Аудио #2
Идентификатор : 3
Формат : AC-3
Формат/Информация : Audio Coding 3
Расширение режима : CM (complete main)
Параметр Endianness формата : Big
Идентификатор кодека : A_AC3
Продолжительность : 1 ч. 28 м.
Вид битрейта : Постоянный
Битрейт : 640 Кбит/сек
Каналы : 6 каналов
Расположение каналов : Front: L C R, Side: L R, LFE
Частота : 48,0 КГц
Частота кадров : 31,250 кадров/сек (1536 spf)
Битовая глубина : 16 бит
Метод сжатия : С потерями
Размер потока : 405 Мбайт (8%)
Заголовок : Esarev
Язык : Russian
Default : Нет
Forced : Нет

Аудио #3
Идентификатор : 4
Формат : AC-3
Формат/Информация : Audio Coding 3
Расширение режима : CM (complete main)
Параметр Endianness формата : Big
Идентификатор кодека : A_AC3
Продолжительность : 1 ч. 28 м.
Вид битрейта : Постоянный
Битрейт : 640 Кбит/сек
Каналы : 6 каналов
Расположение каналов : Front: L C R, Side: L R, LFE
Частота : 48,0 КГц
Частота кадров : 31,250 кадров/сек (1536 spf)
Битовая глубина : 16 бит
Метод сжатия : С потерями
Размер потока : 405 Мбайт (8%)
Язык : English
Default : Нет
Forced : Нет

Текст #1
Идентификатор : 5
Формат : UTF-8
Идентификатор кодека : S_TEXT/UTF8
Идентификатор кодека/Информация : UTF-8 Plain Text
Заголовок : Forced
Язык : Russian
Default : Да
Forced : Нет

Текст #2
Идентификатор : 6
Формат : UTF-8
Идентификатор кодека : S_TEXT/UTF8
Идентификатор кодека/Информация : UTF-8 Plain Text
Заголовок : Full
Язык : Russian
Default : Нет
Forced : Нет

Текст #3
Идентификатор : 7
Формат : UTF-8
Идентификатор кодека : S_TEXT/UTF8
Идентификатор кодека/Информация : UTF-8 Plain Text
Заголовок : Full
Язык : English
Default : Нет
Forced : Нет

Меню
00:00:00.000 : en:(01)00:00:00:000
00:03:33.462 : en:(02)00:03:33:462
00:08:02.732 : en:(03)00:08:02:732
00:14:05.177 : en:(04)00:14:05:177
00:19:45.851 : en:(05)00:19:45:851
00:24:50.029 : en:(06)00:24:50:029
00:28:29.540 : en:(07)00:28:29:540
00:33:33.094 : en:(08)00:33:33:094
00:36:51.416 : en:(09)00:36:51:416
00:41:04.295 : en:(10)00:41:04:295
00:45:48.244 : en:(11)00:45:48:244
00:51:52.400 : en:(12)00:51:52:400
00:57:36.661 : en:(13)00:57:36:661
01:03:46.239 : en:(14)01:03:46:239
01:13:41.917 : en:(15)01:13:41:917
01:21:54.701 : en:(16)01:21:54:701
Скриншоты

x

Не пропустите

Ходячие мертвецы / The Walking Dead [07х01-10 из 16] (2016) WEB-DLRip от Scarabey | LostFilm

СКАЧАТЬ TORRENT ФАЙЛ Год выпуска: 2016 Страна: США Жанр: Ужасы, триллер, драма Продолжительность: ~ 00:43:00 ...