Главная » Видео » Зарубежные фильмы » Мозг Гиммлера зовется Гейдрихом / HHhH (2017) HDRip-AVC от ExKinoRay | L1

Мозг Гиммлера зовется Гейдрихом / HHhH (2017) HDRip-AVC от ExKinoRay | L1

СКАЧАТЬ TORRENT ФАЙЛ

Информация о фильме
Название: Мозг Гиммлера зовется Гейдрихом
Оригинальное название: HHhH
Год выпуска: 2017
Жанр: Боевик, триллер, военный, биография
Режиссер: Седрик Жименес
В ролях: Розамунд Пайк, Миа Васиковска, Джек О’Коннелл, Джек Рейнор, Джейсон Кларк, Томас М. Райт, Энцо Чиленти, Джофф Белл, Ноа Джуп, Барри Атсма

Описание:
Фильм расскажет о стремительном восхождении Рейнхарда Гейдриха — государственного и политического деятеля нацистской Германии, одного из инициаторов «окончательного решения еврейского вопроса», который был убит Яном Кубишем и Йозефом Габчиком — чехословацкими диверсантами, агентами, специально подготовленными англичанами.

Выпущено: Франция, Echo Lake Entertainment, Cutting Edge Group, Légende Films
Продолжительность: 01:59:54
Перевод: BadBajo
Озвучивание: Любительское одноголосое (BadBajo)
Субтитры: Английские

Файл
Формат: MKV
Качество: HDRip-AVC
Видео: MPEG-4 AVC, 1024×428 (2.40:1), 1907 Kbit/s, 24.000 fps, 0,187 bpp
Аудио 1: 48 kHz, AC3, 5.1 ch, 448 Kbps | RUS
Аудио 2: 48 kHz, AC3, 5.1 ch, 448 Kbps | ENG

Без какой-либо рекламы

MIGeneral
Unique ID : 219769178834151762161011059050667321672 (0xA5560115AD358A02BCD70F4B17B82948)
Complete name : D:HHhH.2017.AVO.BadBajo.HDRip.AVC.ExKinoRay.mkv
Format : Matroska
Format version : Version 2
File size : 2.39 GiB
Duration : 1 h 59 min
Overall bit rate : 2 858 kb/s
Movie name : HHhH 2017 from ExKinoRay
Encoded date : UTC 2017-10-09 05:33:25
Writing application : mkvmerge v5.6.0 ('Kenya Kane') built on May 27 2012 16:44:04
Writing library : libebml v1.2.3 + libmatroska v1.3.0

Video
ID : 1
Format : AVC
Format/Info : Advanced Video Codec
Format profile : High@L4.1
Format settings, CABAC : Yes
Format settings, ReFrames : 13 frames
Codec ID : V_MPEG4/ISO/AVC
Duration : 1 h 59 min
Bit rate : 1 962 kb/s
Width : 1 024 pixels
Height : 428 pixels
Display aspect ratio : 2.40:1
Frame rate mode : Constant
Frame rate : 24.000 FPS
Color space : YUV
Chroma subsampling : 4:2:0
Bit depth : 8 bits
Scan type : Progressive
Bits/(Pixel*Frame) : 0.187
Stream size : 1.60 GiB (67%)
Title : Enigma
Writing library : x264 core 152 r2851 ba24899
Encoding settings : cabac=1 / ref=13 / deblock=1:-2:-2 / analyse=0x3:0x113 / me=umh / subme=10 / psy=1 / psy_rd=1.00:0.05 / mixed_ref=1 / me_range=32 / chroma_me=1 / trellis=2 / 8x8dct=1 / cqm=0 / deadzone=21,11 / fast_pskip=1 / chroma_qp_offset=-3 / threads=12 / lookahead_threads=3 / sliced_threads=0 / nr=0 / decimate=0 / interlaced=0 / bluray_compat=0 / constrained_intra=0 / bframes=10 / b_pyramid=2 / b_adapt=2 / b_bias=0 / direct=3 / weightb=1 / open_gop=0 / weightp=2 / keyint=240 / keyint_min=24 / scenecut=40 / intra_refresh=0 / rc_lookahead=40 / rc=2pass / mbtree=0 / bitrate=1962 / ratetol=1.0 / qcomp=0.62 / qpmin=0 / qpmax=51 / qpstep=4 / cplxblur=20.0 / qblur=0.5 / vbv_maxrate=50000 / vbv_bufsize=62500 / nal_hrd=none / filler=0 / ip_ratio=1.40 / pb_ratio=1.30 / aq=3:0.90
Language : English
Default : Yes
Forced : No
Color range : Limited
Color primaries : BT.709
Transfer characteristics : BT.709
Matrix coefficients : BT.709

Audio #1
ID : 2
Format : AC-3
Format/Info : Audio Coding 3
Mode extension : CM (complete main)
Format settings, Endianness : Big
Codec ID : A_AC3
Duration : 1 h 59 min
Bit rate mode : Constant
Bit rate : 448 kb/s
Channel(s) : 6 channels
Channel positions : Front: L C R, Side: L R, LFE
Sampling rate : 48.0 kHz
Frame rate : 31.250 FPS (1536 spf)
Compression mode : Lossy
Stream size : 384 MiB (16%)
Title : AVO (BadBajo)
Language : Russian
Default : Yes
Forced : No

Audio #2
ID : 3
Format : AC-3
Format/Info : Audio Coding 3
Mode extension : CM (complete main)
Format settings, Endianness : Big
Codec ID : A_AC3
Duration : 1 h 59 min
Bit rate mode : Constant
Bit rate : 448 kb/s
Channel(s) : 6 channels
Channel positions : Front: L C R, Side: L R, LFE
Sampling rate : 48.0 kHz
Frame rate : 31.250 FPS (1536 spf)
Compression mode : Lossy
Stream size : 384 MiB (16%)
Language : English
Default : No
Forced : No

Text
ID : 4
Format : UTF-8
Codec ID : S_TEXT/UTF8
Codec ID/Info : UTF-8 Plain Text
Language : English
Default : No
Forced : No

Menu
00:00:00.000 : en:00:00:00.000
00:11:50.083 : en:00:11:50.083
00:27:05.167 : en:00:27:05.167
00:36:59.167 : en:00:36:59.167
00:46:16.417 : en:00:46:16.417
00:57:17.333 : en:00:57:17.333
01:09:02.958 : en:01:09:02.958
01:17:41.417 : en:01:17:41.417
01:28:27.458 : en:01:28:27.458
01:40:45.167 : en:01:40:45.167
01:48:07.542 : en:01:48:07.542
01:55:45.500 : en:01:55:45.500

Автор релиза:

x

Не пропустите

Падение Олимпа / Olympus Has Fallen (2013) BDRemux 1080p | D, A

СКАЧАТЬ TORRENT ФАЙЛ Информация о фильме Название: Падение Олимпа Оригинальное название: Olympus Has Fallen Год ...