Главная » Видео » Зарубежные фильмы » Можно только представить / I Can Only Imagine (2018) BDRip-AVC от qusi555 | iTunes

Можно только представить / I Can Only Imagine (2018) BDRip-AVC от qusi555 | iTunes

СКАЧАТЬ TORRENT ФАЙЛ

Название: Можно только представить
Оригинальное название: I Can Only Imagine
Год выхода: 2018
Жанр: Драма, семейный
Страна: США
Студия: Kevin Downes Productions, Mission Pictures International, City on a Hill Productions
Режиссер(ы): Эндрю Эрвин, Джон Эрвин
В ролях: Дэннис Куэйд, Дж. Майкл Финли, Броди Роуз, Трэйси Эдкинс, Эрик Ашлок, Джина Д. Брюэр, О'Шей Брукс, Джейсон Бёрки, Тэген Бернс

История рождения одноименной песни группы MercyMe. Лидер команды посвятил эту песню о вере, любви и прощении своему отцу, не подозревая, что скоро она облетит весь мир, станет платиновым хитом, а главное — подарит надежду миллионам людей.

Продолжительность: 01:50:20
Перевод: Дублированный | iTunes
Качество: BDRip-AVC [исх.2018.REMUX.1080p.BluRay.AVC-iFT] Видео: AVC/[email protected], 1194×500, 3003 kbps, 23.976 fps
Аудио #01: 48 kHz, AC3, 5.1, 384 Kbps || RUS |
Аудио #02: 48 kHz, AC3, 5.1, 384 Kbps || ENG |
Субтитры: Английские

Скриншоты

Media İnfo and log x264
General
Format : Matroska
Format version : Version 4 / Version 2
File size : 2.90 GiB
Duration : 1 h 50 min
Overall bit rate : 3 768 kb/s
Movie name : ENCODER: qusi555
Encoded date : UTC 2018-06-11 19:12:45
Writing application : mkvmerge v8.3.0 ('Over the Horizon') 64bit
Writing library : libebml v1.3.1 + libmatroska v1.4.2

Video
ID : 1
Format : AVC
Format/Info : Advanced Video Codec
Format profile : High@L4.1
Format settings : CABAC / 13 Ref Frames
Format settings, CABAC : Yes
Format settings, RefFrames : 13 frames
Codec ID : V_MPEG4/ISO/AVC
Duration : 1 h 50 min
Bit rate : 3 003 kb/s
Width : 1 194 pixels
Height : 500 pixels
Display aspect ratio : 2.40:1
Frame rate mode : Constant
Frame rate : 23.976 (24000/1001) FPS
Color space : YUV
Chroma subsampling : 4:2:0
Bit depth : 8 bits
Scan type : Progressive
Bits/(Pixel*Frame) : 0.210
Stream size : 2.31 GiB (80%)
Title : ENCODER: qusi555
Writing library : x264 core 155 r2901 7d0ff22
Encoding settings : cabac=1 / ref=13 / deblock=1:-3:-3 / analyse=0x3:0x133 / me=umh / subme=10 / psy=1 / psy_rd=1.05:0.00 / mixed_ref=1 / me_range=32 / chroma_me=1 / trellis=2 / 8x8dct=1 / cqm=0 / deadzone=21,11 / fast_pskip=0 / chroma_qp_offset=-4 / threads=12 / lookahead_threads=2 / sliced_threads=0 / nr=0 / decimate=0 / interlaced=0 / bluray_compat=0 / constrained_intra=0 / bframes=8 / b_pyramid=2 / b_adapt=2 / b_bias=0 / direct=3 / weightb=1 / open_gop=0 / weightp=2 / keyint=240 / keyint_min=23 / scenecut=40 / intra_refresh=0 / rc_lookahead=60 / rc=2pass / mbtree=0 / bitrate=3003 / ratetol=1.0 / qcomp=0.65 / qpmin=0 / qpmax=69 / qpstep=4 / cplxblur=20.0 / qblur=0.5 / vbv_maxrate=50000 / vbv_bufsize=62500 / nal_hrd=none / filler=0 / ip_ratio=1.30 / pb_ratio=1.20 / aq=3:0.80
Default : Yes
Forced : No

Audio #1
ID : 2
Format : AC-3
Format/Info : Audio Coding 3
Codec ID : A_AC3
Duration : 1 h 50 min
Bit rate mode : Constant
Bit rate : 384 kb/s
Channel(s) : 6 channels
Channel positions : Front: L C R, Side: L R, LFE
Sampling rate : 48.0 kHz
Frame rate : 31.250 FPS (1536 SPF)
Bit depth : 16 bits
Compression mode : Lossy
Stream size : 303 MiB (10%)
Title : iTunes
Language : Russian
Service kind : Complete Main
Default : Yes
Forced : Yes

Audio #2
ID : 3
Format : AC-3
Format/Info : Audio Coding 3
Codec ID : A_AC3
Duration : 1 h 50 min
Bit rate mode : Constant
Bit rate : 384 kb/s
Channel(s) : 6 channels
Channel positions : Front: L C R, Side: L R, LFE
Sampling rate : 48.0 kHz
Frame rate : 31.250 FPS (1536 SPF)
Bit depth : 16 bits
Compression mode : Lossy
Stream size : 303 MiB (10%)
Title : Orijinal 5.1
Language : English
Service kind : Complete Main
Default : No
Forced : No

Text
ID : 4
Format : UTF-8
Codec ID : S_TEXT/UTF8
Codec ID/Info : UTF-8 Plain Text
Duration : 1 h 44 min
Bit rate : 52 b/s
Count of elements : 1226
Stream size : 40.1 KiB (0%)
Title : Full
Language : English
Default : No
Forced : No
LOG x264
-[Information] [10.6.2018 22:10:57] y4m [info]: 1194x500p 1:1 @ 24000/1001 fps (cfr)
-[Information] [10.6.2018 22:10:57] x264 [info]: using SAR=1/1
-[Information] [10.6.2018 22:10:57] x264 [info]: using cpu capabilities: MMX2 SSE2Fast SSSE3 SSE4.2 AVX FMA3 BMI2 AVX2
-[Information] [10.6.2018 22:10:57] x264 [info]: profile High, level 4.1
-[Information] [11.6.2018 01:07:52] x264 [info]: frame I:1335 Avg QP:15.19 size: 80586
-[Information] [11.6.2018 01:07:52] x264 [info]: frame P:35156 Avg QP:17.52 size: 29623
-[Information] [11.6.2018 01:07:52] x264 [info]: frame B:122241 Avg QP:18.55 size: 10894
-[Information] [11.6.2018 01:07:52] x264 [info]: consecutive B-frames: 2.6% 3.1% 8.7% 16.9% 18.6% 39.8% 6.2% 1.5% 2.6%
-[Information] [11.6.2018 01:07:52] x264 [info]: mb I I16..4: 7.0% 76.3% 16.7%
-[Information] [11.6.2018 01:07:52] x264 [info]: mb P I16..4: 2.8% 13.0% 2.3% P16..4: 40.1% 21.7% 14.5% 0.5% 0.2% skip: 4.9%
-[Information] [11.6.2018 01:07:52] x264 [info]: mb B I16..4: 0.4% 1.1% 0.3% B16..8: 40.5% 13.2% 3.4% direct: 9.0% skip:32.2% L0:45.3% L1:42.1% BI:12.6%
-[Information] [11.6.2018 01:07:52] x264 [info]: 8×8 transform intra:70.0% inter:63.2%
-[Information] [11.6.2018 01:07:52] x264 [info]: direct mvs spatial:97.8% temporal:2.2%
-[Information] [11.6.2018 01:07:52] x264 [info]: coded y,uvDC,uvAC intra: 69.2% 86.5% 74.2% inter: 25.6% 41.4% 22.4%
-[Information] [11.6.2018 01:07:52] x264 [info]: i16 v,h,dc,p: 35% 15% 9% 41%
-[Information] [11.6.2018 01:07:52] x264 [info]: i8 v,h,dc,ddl,ddr,vr,hd,vl,hu: 17% 9% 10% 8% 11% 12% 11% 11% 11%
-[Information] [11.6.2018 01:07:52] x264 [info]: i4 v,h,dc,ddl,ddr,vr,hd,vl,hu: 32% 7% 7% 7% 11% 11% 9% 8% 8%
-[Information] [11.6.2018 01:07:52] x264 [info]: i8c dc,h,v,p: 49% 20% 19% 12%
-[Information] [11.6.2018 01:07:52] x264 [info]: Weighted P-Frames: Y:4.1% UV:2.3%
-[Information] [11.6.2018 01:07:52] x264 [info]: ref P L0: 47.0% 10.9% 16.8% 6.0% 5.1% 3.3% 3.1% 1.6% 1.6% 1.2% 1.2% 0.9% 1.0% 0.1% 0.0%
-[Information] [11.6.2018 01:07:52] x264 [info]: ref B L0: 70.9% 12.4% 5.8% 3.0% 2.1% 1.7% 1.4% 0.8% 0.8% 0.6% 0.4% 0.2%
-[Information] [11.6.2018 01:07:52] x264 [info]: ref B L1: 94.3% 5.7%
-[Information] [11.6.2018 01:07:52] x264 [info]: kb/s:2997.67
-[Information] [11.6.2018 01:07:52] encoded 158732 frames, 14.95 fps, 2997.67 kb/s

x

Не пропустите

Стрелок / Shooter [03х01 из 13] (2018) WEBRip 720p | OmskBird

СКАЧАТЬ TORRENT ФАЙЛ Информация о фильме Название: Стрелок Оригинальное название: Shooter Год выхода: 2018 Жанр: ...