Главная » Видео » Зарубежные фильмы » Могучие рейнджеры / Power Rangers (2017) BDRip 720p от ExKinoRay | Лицензия

Могучие рейнджеры / Power Rangers (2017) BDRip 720p от ExKinoRay | Лицензия

СКАЧАТЬ TORRENT ФАЙЛ

Информация о фильме
Название: Могучие рейнджеры
Оригинальное название: Power Rangers
Год выхода: 2017
Жанр: Фантастика, боевик, приключения
Режиссер: Дин Израэлайт
В ролях: Дакре Монтгомери, Наоми Скотт, АрДжей Сайлер, Луди Линь, Бекки Джи, Элизабет Бэнкс, Брайан Крэнстон, Билл Хэйдер, Мэтт Шайвли, Коуди Кирсли

О фильме:
Пять обычных старшеклассников узнают, что их маленький город Энджел Гроув и весь мир находятся на грани уничтожения инопланетной угрозой. Избранные судьбой наши герои быстро понимают, что они единственные, кто может спасти планету.

Страна: Канада, США
Студия: Lionsgate, Saban Brands
Продолжительность: 02:03:59
Перевод: Дублированный | Лицензия

Файл
Качество: BDRip 720p
Видео: MPEG-4 AVC, 1280×534, 4535 Кbit/s, 23.976 fps
Звук:
Аудио #01: 48 kHz, DTS, 5.1, 768 Kbps | Дублированный | RUS |

Аудио #02: 48 kHz, AC3, 5.1, 448 Kbps | Дублированный | RUS |

Аудио #03: 48 kHz, AC3, 5.1, 640 Kbps | Оригинал | ENG |

Субтитры: Русские (forced, full), английские

MIGeneral
Unique ID : 240787929626646763479292655760138598227 (0xB52611821AE8FD7C82F4922591847753)
Complete name : G:VideoSSDPower.Rangers.2017.BDRip.720p.ExKinoRay.mkv
Format : Matroska
Format version : Version 4 / Version 2
File size : 5.54 GiB
Duration : 2 h 3 min
Overall bit rate : 6 394 kb/s
Encoded date : UTC 2017-10-26 05:58:39
Writing application : mkvmerge v17.0.0 ('Be Ur Friend') 64-bit
Writing library : libebml v1.3.5 + libmatroska v1.4.8

Video
ID : 1
Format : AVC
Format/Info : Advanced Video Codec
Format profile : High@L4.1
Format settings : CABAC / 9 Ref Frames
Format settings, CABAC : Yes
Format settings, RefFrames : 9 frames
Codec ID : V_MPEG4/ISO/AVC
Duration : 2 h 3 min
Bit rate : 4 535 kb/s
Width : 1 280 pixels
Height : 534 pixels
Display aspect ratio : 2.40:1
Frame rate mode : Constant
Frame rate : 23.976 (24000/1001) FPS
Color space : YUV
Chroma subsampling : 4:2:0
Bit depth : 8 bits
Scan type : Progressive
Bits/(Pixel*Frame) : 0.277
Stream size : 3.93 GiB (71%)
Writing library : x264 core 142 r2431+42 c69a006 tMod [8-bit@4:2:0 X86_64] Encoding settings : cabac=1 / ref=9 / deblock=1:-3:-3 / analyse=0x3:0x113 / me=umh / subme=10 / psy=1 / fade_compensate=0.00 / psy_rd=1.00:0.05 / mixed_ref=1 / me_range=32 / chroma_me=1 / trellis=2 / 8x8dct=1 / cqm=0 / deadzone=21,11 / fast_pskip=0 / chroma_qp_offset=-2 / threads=12 / lookahead_threads=2 / sliced_threads=0 / nr=0 / decimate=1 / interlaced=0 / bluray_compat=0 / constrained_intra=0 / fgo=0 / bframes=8 / b_pyramid=2 / b_adapt=2 / b_bias=0 / direct=3 / weightb=1 / open_gop=0 / weightp=2 / keyint=250 / keyint_min=23 / scenecut=40 / intra_refresh=0 / rc_lookahead=40 / rc=crf / mbtree=0 / crf=18.0000 / qcomp=0.60 / qpmin=0:0:0 / qpmax=69:69:69 / qpstep=4 / vbv_maxrate=30000 / vbv_bufsize=30000 / crf_max=0.0 / nal_hrd=none / filler=0 / ip_ratio=1.40 / pb_ratio=1.30 / aq=3:1.00 / aq-sensitivity=10.00 / aq-factor=1.00:1.00:1.00 / aq2=0 / aq3=0
Language : English
Default : Yes
Forced : No
Color range : Limited
Matrix coefficients : BT.709

Audio #1
ID : 2
Format : DTS
Format/Info : Digital Theater Systems
Mode : 16
Format settings, Endianness : Big
Codec ID : A_DTS
Duration : 2 h 3 min
Bit rate mode : Constant
Bit rate : 768 kb/s
Channel(s) : 6 channels
Channel positions : Front: L C R, Side: L R, LFE
Sampling rate : 48.0 kHz
Frame rate : 93.750 FPS (512 SPF)
Bit depth : 16 bits
Compression mode : Lossy
Stream size : 681 MiB (12%)
Title : Dub [License] Language : Russian
Default : Yes
Forced : No

Audio #2
ID : 3
Format : AC-3
Format/Info : Audio Coding 3
Format settings, Endianness : Big
Codec ID : A_AC3
Duration : 2 h 3 min
Bit rate mode : Constant
Bit rate : 448 kb/s
Channel(s) : 6 channels
Channel positions : Front: L C R, Side: L R, LFE
Sampling rate : 48.0 kHz
Frame rate : 31.250 FPS (1536 SPF)
Bit depth : 16 bits
Compression mode : Lossy
Stream size : 397 MiB (7%)
Title : Dub [License] Language : Russian
Service kind : Complete Main
Default : No
Forced : No

Audio #3
ID : 4
Format : AC-3
Format/Info : Audio Coding 3
Format settings, Endianness : Big
Codec ID : A_AC3
Duration : 2 h 3 min
Bit rate mode : Constant
Bit rate : 640 kb/s
Channel(s) : 6 channels
Channel positions : Front: L C R, Side: L R, LFE
Sampling rate : 48.0 kHz
Frame rate : 31.250 FPS (1536 SPF)
Bit depth : 16 bits
Compression mode : Lossy
Stream size : 568 MiB (10%)
Title : Original
Language : English
Service kind : Complete Main
Default : No
Forced : No

Text #1
ID : 5
Format : UTF-8
Codec ID : S_TEXT/UTF8
Codec ID/Info : UTF-8 Plain Text
Duration : 1 h 51 min
Bit rate : 2 b/s
Count of elements : 42
Stream size : 1.88 KiB (0%)
Title : Forced
Language : Russian
Default : Yes
Forced : No

Text #2
ID : 6
Format : UTF-8
Codec ID : S_TEXT/UTF8
Codec ID/Info : UTF-8 Plain Text
Duration : 1 h 55 min
Bit rate : 99 b/s
Count of elements : 1660
Stream size : 83.8 KiB (0%)
Title : Full
Language : Russian
Default : No
Forced : No

Text #3
ID : 7
Format : UTF-8
Codec ID : S_TEXT/UTF8
Codec ID/Info : UTF-8 Plain Text
Duration : 1 h 52 min
Bit rate : 56 b/s
Count of elements : 1623
Stream size : 46.7 KiB (0%)
Title : Full
Language : English
Default : No
Forced : No

Text #4
ID : 8
Format : UTF-8
Codec ID : S_TEXT/UTF8
Codec ID/Info : UTF-8 Plain Text
Duration : 1 h 55 min
Bit rate : 67 b/s
Count of elements : 1889
Stream size : 56.9 KiB (0%)
Title : SDH
Language : English
Default : No
Forced : No

Text #5
ID : 9
Format : UTF-8
Codec ID : S_TEXT/UTF8
Codec ID/Info : UTF-8 Plain Text
Duration : 1 h 55 min
Bit rate : 91 b/s
Count of elements : 1877
Stream size : 77.8 KiB (0%)
Title : SDH Colored
Language : English
Default : No
Forced : No

Menu
00:00:00.000 : en:00:00:00.000
00:07:00.253 : en:00:07:00.253
00:13:45.241 : en:00:13:45.241
00:18:57.720 : en:00:18:57.720
00:25:49.590 : en:00:25:49.590
00:31:17.125 : en:00:31:17.125
00:38:24.761 : en:00:38:24.761
00:50:49.046 : en:00:50:49.046
01:00:00.221 : en:01:00:00.221
01:08:09.877 : en:01:08:09.877
01:17:06.747 : en:01:17:06.747
01:24:41.743 : en:01:24:41.743
01:30:45.023 : en:01:30:45.023
01:34:18.861 : en:01:34:18.861
01:44:32.933 : en:01:44:32.933
01:51:46.158 : en:01:51:46.158

Автор релиза:

Подпишись на меня, кликни по картинке > :

x

Не пропустите

Mamma Mia! 2 / Mamma Mia! Here We Go Again (2018) BDRip от MegaPeer | iTunes

СКАЧАТЬ TORRENT ФАЙЛ Информация о фильме Название: Mamma Mia! 2 Оригинальное название: Mamma Mia! Here ...