Главная » Видео » Зарубежные фильмы » Механик: Воскрешение / Mechanic: Resurrection (2016) BDRemux 1080p от ExKinoRay | iTunes

Механик: Воскрешение / Mechanic: Resurrection (2016) BDRemux 1080p от ExKinoRay | iTunes

СКАЧАТЬ TORRENT ФАЙЛ

Информация о фильме
Название: Механик: Воскрешение
Оригинальное название: Mechanic: Resurrection
Год выхода: 2016
Жанр: Боевик, триллер, криминал
Режиссер: Дэннис Ганзель
В ролях: Джейсон Стэйтем, Джессика Альба, Томми Ли Джонс, Мишель Йео, Наталия Гуслистая, Ейяинг Рхатха Пхонгам, Сэм Хэзелдайн, Джон Ченатьемпо, Райчо Василев, Аарон Брамфилд

О фильме:
Артура Бишопа, давно оставившего свое криминальное ремесло, вынуждают снова вступить в игру. Чтобы похитители вернули его возлюбленную, он должен сделать то, что у него получается лучше всего: от него требуется совершить три убийства, идеально обставленных как несчастные случаи.

Страна: Франция, США
Студия: Chartoff-Winkler Productions, Davis-Films, ME2 Productions, Millennium Films
Продолжительность: 01:38:39
Перевод: Дублированный | iTunes

Файл
Кодек: MPEG-4
Качество: BDRemux 1080p
Видео: 1920×1080, 33.9 Mbit/s, 23.976 fps
Звук:
Аудио #01: 48 kHz, AC3, 5.1, 384 Kbps | Дублированный | iTunes |

Аудио #02: 48 kHz, TrueHD, 7.1, 5351 kbps | Оригинал |

Субтитры: Английские

MIGeneral
Unique ID : 254487022018589545293640449569568710622 (0xBF746AE8E7C4BDD48FCE5A6647C5DFDE)
Complete name : G:VideoMechanic.Resurrection.2016.BDREMUX.1080p.ExKinoRay.mkv
Format : Matroska
Format version : Version 4 / Version 2
File size : 27.4 GiB
Duration : 1 h 38 min
Overall bit rate mode : Variable
Overall bit rate : 39.7 Mb/s
Movie name : Mechanic.Resurrection.2016 build by ***селезень***
Encoded date : UTC 2016-11-12 09:37:21
Writing application : mkvmerge v8.3.0 ('Over the Horizon') 64bit
Writing library : libebml v1.3.1 + libmatroska v1.4.2

Video
ID : 1
Format : AVC
Format/Info : Advanced Video Codec
Format profile : High@L4.1
Format settings, CABAC : Yes
Format settings, ReFrames : 4 frames
Codec ID : V_MPEG4/ISO/AVC
Duration : 1 h 38 min
Bit rate mode : Variable
Bit rate : 33.9 Mb/s
Maximum bit rate : 36.0 Mb/s
Width : 1 920 pixels
Height : 1 080 pixels
Display aspect ratio : 16:9
Frame rate mode : Constant
Frame rate : 23.976 (24000/1001) FPS
Color space : YUV
Chroma subsampling : 4:2:0
Bit depth : 8 bits
Scan type : Progressive
Bits/(Pixel*Frame) : 0.682
Stream size : 23.4 GiB (85%)
Title : Mechanic.Resurrection.2016 build by ***селезень***
Language : English
Default : Yes
Forced : No

Audio #1
ID : 2
Format : AC-3
Format/Info : Audio Coding 3
Mode extension : CM (complete main)
Format settings, Endianness : Big
Codec ID : A_AC3
Duration : 1 h 38 min
Bit rate mode : Constant
Bit rate : 384 kb/s
Channel(s) : 6 channels
Channel positions : Front: L C R, Side: L R, LFE
Sampling rate : 48.0 kHz
Frame rate : 31.250 FPS (1536 spf)
Compression mode : Lossy
Stream size : 271 MiB (1%)
Title : iTunes
Language : Russian
Default : Yes
Forced : No

Audio #2
ID : 3
Format : Atmos / TrueHD
Codec ID : A_TRUEHD
Duration : 1 h 38 min
Bit rate mode : Variable
Bit rate : 5 351 kb/s
Maximum bit rate : 7 938 kb/s
Channel(s) : Object Based / 8 channels
Channel positions : Object Based / Front: L C R, Side: L R, Back: L R, LFE
Sampling rate : / 48.0 kHz
Frame rate : 1 200.000 FPS (40 spf)
Compression mode : Lossless
Delay relative to video : 1 ms
Stream size : 3.69 GiB (13%)
Title : Original
Language : English
Default : No
Forced : No

Text #1
ID : 4
Format : UTF-8
Codec ID : S_TEXT/UTF8
Codec ID/Info : UTF-8 Plain Text
Duration : 1 h 30 min
Bit rate : 29 b/s
Count of elements : 631
Stream size : 19.8 KiB (0%)
Title : Full
Language : English
Default : No
Forced : No

Text #2
ID : 5
Format : UTF-8
Codec ID : S_TEXT/UTF8
Codec ID/Info : UTF-8 Plain Text
Duration : 1 h 33 min
Bit rate : 34 b/s
Count of elements : 847
Stream size : 23.8 KiB (0%)
Title : SDH
Language : English
Default : No
Forced : No

Menu
00:00:00.000 : en:00:00:00.000
00:06:34.936 : en:00:06:34.936
00:11:51.336 : en:00:11:51.336
00:18:31.277 : en:00:18:31.277
00:26:04.897 : en:00:26:04.897
00:31:57.540 : en:00:31:57.540
00:38:31.267 : en:00:38:31.267
00:43:35.696 : en:00:43:35.696
00:49:23.210 : en:00:49:23.210
00:54:20.382 : en:00:54:20.382
01:00:09.856 : en:01:00:09.856
01:05:50.446 : en:01:05:50.446
01:10:25.429 : en:01:10:25.429
01:14:52.363 : en:01:14:52.363
01:21:04.860 : en:01:21:04.860
01:31:38.785 : en:01:31:38.785

Автор релиза:

x

Не пропустите

Шесть / Six [01×01 из 08] (2017) WEB-DLRip 1080p | IdeaFilm

СКАЧАТЬ TORRENT ФАЙЛ Информация о фильме Название: Шесть Оригинальное название: Six Год выпуска: 2017 Жанр: ...