Главная » Видео » Зарубежные фильмы » Меган Ливи / Megan Leavey (2017) BDRip 1080p от qqss44 & MegaPeer | iTunes

Меган Ливи / Megan Leavey (2017) BDRip 1080p от qqss44 & MegaPeer | iTunes

СКАЧАТЬ TORRENT ФАЙЛ


Анонсы 1080p от qqss44

Информация о фильме
Название: Меган Ливи
Оригинальное название: Megan Leavey
Год выпуска: 2017
Жанр: Драма, военный, биография, реальные события
Режиссер: Габриэла Каупертвэйте
В ролях: Кейт Мара, Джеральдин Джеймс, Брэдли Уитфорд, Том Фелтон, Иди Фалко, Коммон, Уилл Пэттон, Шеннон Тарбет, Рамон Родригес, Кори Джонсон

О фильме:
Американская военнослужащая Меган Ливи со служебной собакой проходит службу в Ираке, где находят взрывные устройства.

Страна: США
Студия: LD Entertainment, Calle Cruzada
Продолжительность: 01:56:36
Перевод: Профессиональный (многоголосый, закадровый) | iTunes

Файл
Формат: MKV, BDRip 1080p
Видео: MPEG-4 AVC, 8888 Кбит/с, 1920×804
Aудио#1: [RUS] AC3 | 48 KHz | 5.1 (Front: L С R Side: L R) + LFE | ~384 kbps

Скриншоты

МИ
Общее
Уникальный идентификатор : 245600676468783407115942651388055217361 (0xB8C4F83F64963A88ACAA63331D5B64D1)
Полное имя : X:Megan.Leavey.(2017).BDRip-1080p.MegaPeer.(qqss44).mkv
Формат : Matroska
Версия формата : Version 2
Размер файла : 7,55 Гбайт
Продолжительность : 1 ч. 56 м.
Общий поток : 9265 Кбит/сек
Название фильма : Megan.Leavey.(2017).BDRip-1080p.MegaPeer.(qqss44)
Дата кодирования : UTC 2018-06-12 09:53:42
Программа кодирования : mkvmerge v5.8.0 ('No Sleep / Pillow') built on Sep 2 2012 15:37:04
Библиотека кодирования : libebml v1.2.3 + libmatroska v1.3.0

Видео
Идентификатор : 1
Формат : AVC
Формат/Информация : Advanced Video Codec
Профиль формата : High@L4.1
Параметр CABAC формата : Да
Параметр ReFrames формата : 5 кадров
Идентификатор кодека : V_MPEG4/ISO/AVC
Продолжительность : 1 ч. 56 м.
Битрейт : 8888 Кбит/сек
Ширина : 1920 пикселей
Высота : 804 пикселя
Соотношение сторон : 2,40:1
Режим частоты кадров : Постоянный
Частота кадров : 23,976 (24000/1001) кадра/сек
Цветовое пространство : YUV
Субдискретизация насыщенности : 4:2:0
Битовая глубина : 8 бит
Тип развёртки : Прогрессивная
Бит/(Пиксели*Кадры) : 0.240
Размер потока : 7,08 Гбайт (94%)
Библиотека кодирования : x264 core 152 r2851 ba24899
Настройки программы : cabac=1 / ref=5 / deblock=1:-3:-3 / analyse=0x3:0x113 / me=umh / subme=11 / psy=1 / psy_rd=1.00:0.00 / mixed_ref=1 / me_range=32 / chroma_me=1 / trellis=2 / 8x8dct=1 / cqm=0 / deadzone=21,11 / fast_pskip=0 / chroma_qp_offset=-2 / threads=12 / lookahead_threads=3 / sliced_threads=0 / nr=0 / decimate=0 / interlaced=0 / bluray_compat=0 / constrained_intra=0 / bframes=10 / b_pyramid=2 / b_adapt=2 / b_bias=0 / direct=3 / weightb=1 / open_gop=0 / weightp=2 / keyint=250 / keyint_min=23 / scenecut=40 / intra_refresh=0 / rc_lookahead=40 / rc=2pass / mbtree=0 / bitrate=8888 / ratetol=1.0 / qcomp=0.70 / qpmin=0 / qpmax=69 / qpstep=4 / cplxblur=20.0 / qblur=0.5 / vbv_maxrate=50000 / vbv_bufsize=62500 / nal_hrd=none / filler=0 / ip_ratio=1.40 / pb_ratio=1.30 / aq=3:0.80
Язык : English
Default : Да
Forced : Нет

Аудио
Идентификатор : 2
Формат : AC-3
Формат/Информация : Audio Coding 3
Расширение режима : CM (complete main)
Параметр Endianness формата : Big
Идентификатор кодека : A_AC3
Продолжительность : 1 ч. 56 м.
Вид битрейта : Постоянный
Битрейт : 384 Кбит/сек
Каналы : 6 каналов
Расположение каналов : Front: L C R, Side: L R, LFE
Частота : 48,0 КГц
Частота кадров : 31,250 кадров/сек (1536 spf)
Метод сжатия : С потерями
Размер потока : 320 Мбайт (4%)
Язык : Russian
Default : Да
Forced : Нет

Меню
00:00:00.000 : :Chapter 01
00:04:27.767 : :Chapter 02
00:08:12.283 : :Chapter 03
00:15:31.263 : :Chapter 04
00:20:05.787 : :Chapter 05
00:27:39.866 : :Chapter 06
00:34:44.123 : :Chapter 07
00:38:48.826 : :Chapter 08
00:45:11.792 : :Chapter 09
00:52:07.874 : :Chapter 10
00:58:51.194 : :Chapter 11
01:06:28.150 : :Chapter 12
01:11:44.758 : :Chapter 13
01:17:19.718 : :Chapter 14
01:23:28.586 : :Chapter 15
01:28:38.521 : :Chapter 16
01:34:44.053 : :Chapter 17
01:39:33.133 : :Chapter 18
01:44:29.513 : :Chapter 19
01:48:39.971 : :Chapter 20
01:56:36.447 : :Chapter 21

x

Не пропустите

451 градус по Фаренгейту / Fahrenheit 451 (2018) BDRip-AVC от ExKinoRay | P

СКАЧАТЬ TORRENT ФАЙЛ Информация о фильме Название: 451 градус по Фаренгейту Оригинальное название: Fahrenheit 451 ...