Главная » Видео » Зарубежные фильмы » Медовый месяц / Honeymoon (2014) BDRip 720p | L1

Медовый месяц / Honeymoon (2014) BDRip 720p | L1

СКАЧАТЬ TORRENT ФАЙЛ

Информация о фильме
Название: Медовый месяц
Оригинальное название: Honeymoon
Год выхода: 2014
Жанр: ужасы, триллер
Режиссер: Ли Джаньяк
В ролях: Роуз Лесли, Гарри Тредэвэй, Бен Хубер, Ханна Браун, Генри Лоуренс

Описание: Молодожёны Пол и Би отправляются в удалённое местечко у озера, чтобы провести там медовый месяц. Вскоре после прибытия Пол находит Би блуждающей посреди ночи в лесу. И по мере того, как она становится всё более отчуждённой, Пол начинает подозревать, что это был не просто лунатизм и в лесу произошло что-то ужасное…

Страна: США
Продолжительность: 01:27:28
Перевод: Любительский (одноголосый закадровый) R.A.I.M
Субтитры: английские (SDH)
Оригинальная аудиодорожка: английский

Файл
Качество: BDRip 720p (рип от [email protected])
Видео: AVC (x264), 1280×692 (1.85:1) at 23,976 fps, 10400 Кbps, 0.488 bpp
Аудио 1: AC3; 384 Kbps; CBR; 6 ch; 48 khz | VO — R.A.I.M
Аудио 2: DTS; 1536 Kbps; CBR; 6 ch; 48 khz | Английский

Скриншоты


MediaInfoGeneral
Unique ID : 212384377720731660842124465203914749397 (0x9FC7BE476AD06B3C938D998788A435D5)
Complete name : Медовый месяц.2014.L1.720p.BluRay.x264-iNK.mkv
Format : Matroska
Format version : Version 4 / Version 2
File size : 7.63 GiB
Duration : 1h 27mn
Overall bit rate : 12.5 Mbps
Movie name : Honeymoon [2014] [720p] VO
Encoded date : UTC 2015-01-23 23:00:50
Writing application : mkvmerge v7.5.0 ('Glass Culture') 32bit built on Jan 4 2015 16:37:25
Writing library : libebml v1.3.1 + libmatroska v1.4.2

Video
ID : 1
Format : AVC
Format/Info : Advanced Video Codec
Format profile : High@L4.1
Format settings, CABAC : Yes
Format settings, ReFrames : 9 frames
Codec ID : V_MPEG4/ISO/AVC
Duration : 1h 27mn
Bit rate : 10.4 Mbps
Width : 1 280 pixels
Height : 692 pixels
Display aspect ratio : 1.85:1
Frame rate mode : Constant
Frame rate : 23.976 fps
Color space : YUV
Chroma subsampling : 4:2:0
Bit depth : 8 bits
Scan type : Progressive
Bits/(Pixel*Frame) : 0.488
Stream size : 6.33 GiB (83%)
Title : profile.php?mode=viewprofile&u=22488948
Writing library : x264 core 142 r2431+42 c69a006 tMod [8-bit@4:2:0 X86_64] Encoding settings : cabac=1 / ref=9 / deblock=1:-3:-3 / analyse=0x3:0x113 / me=umh / subme=11 / psy=1 / fade_compensate=0.00 / psy_rd=1.00:0.00 / mixed_ref=1 / me_range=32 / chroma_me=1 / trellis=2 / 8x8dct=1 / cqm=0 / deadzone=21,11 / fast_pskip=0 / chroma_qp_offset=-4 / threads=12 / lookahead_threads=1 / sliced_threads=0 / nr=0 / decimate=0 / interlaced=0 / bluray_compat=0 / constrained_intra=0 / fgo=0 / bframes=6 / b_pyramid=2 / b_adapt=2 / b_bias=0 / direct=3 / weightb=1 / open_gop=0 / weightp=2 / keyint=250 / keyint_min=23 / scenecut=40 / intra_refresh=0 / rc_lookahead=60 / rc=crf / mbtree=0 / crf=18.6000 / qcomp=0.70 / qpmin=0:0:0 / qpmax=69:69:69 / qpstep=4 / vbv_maxrate=62500 / vbv_bufsize=78125 / crf_max=0.0 / nal_hrd=none / filler=0 / ip_ratio=1.40 / pb_ratio=1.20 / aq=4:0.75 / aq-sensitivity=10.00 / aq-factor=1.00:1.00:1.00 / aq2=0 / aq3=0
Language : English
Default : Yes
Forced : No

Audio #1
ID : 2
Format : AC-3
Format/Info : Audio Coding 3
Mode extension : CM (complete main)
Format settings, Endianness : Big
Codec ID : A_AC3
Duration : 1h 27mn
Bit rate mode : Constant
Bit rate : 384 Kbps
Channel(s) : 6 channels
Channel positions : Front: L C R, Side: L R, LFE
Sampling rate : 48.0 KHz
Bit depth : 16 bits
Compression mode : Lossy
Stream size : 240 MiB (3%)
Title : VO [R.A.I.M] Language : Russian
Default : Yes
Forced : No

Audio #2
ID : 3
Format : DTS
Format/Info : Digital Theater Systems
Mode : 16
Format settings, Endianness : Big
Codec ID : A_DTS
Duration : 1h 27mn
Bit rate mode : Constant
Bit rate : 1 509 Kbps
Channel(s) : 6 channels
Channel positions : Front: L C R, Side: L R, LFE
Sampling rate : 48.0 KHz
Bit depth : 24 bits
Compression mode : Lossy
Stream size : 944 MiB (12%)
Language : English
Default : No
Forced : No

Text
ID : 4
Format : UTF-8
Codec ID : S_TEXT/UTF8
Codec ID/Info : UTF-8 Plain Text
Title : SDH
Language : English
Default : No
Forced : No

Menu
00:00:00.000 : en:00:00:00.000
00:06:28.096 : en:00:06:28.096
00:10:13.530 : en:00:10:13.530
00:14:42.465 : en:00:14:42.465
00:19:03.184 : en:00:19:03.184
00:24:46.819 : en:00:24:46.819
00:29:31.645 : en:00:29:31.645
00:35:50.774 : en:00:35:50.774
00:40:03.735 : en:00:40:03.735
00:44:21.075 : en:00:44:21.075
00:50:49.922 : en:00:50:49.922
00:54:30.642 : en:00:54:30.642
00:59:57.385 : en:00:59:57.385
01:06:37.911 : en:01:06:37.911
01:16:44.809 : en:01:16:44.809
01:20:26.280 : en:01:20:26.280

x

Не пропустите

2 Верник 2 [01-04] (2017) SATRip от Files-х

СКАЧАТЬ TORRENT ФАЙЛ Информация о фильме Оригинальное название: 2 Верник 2 Год выпуска: 2017 Жанр: ...