Главная » Видео » Зарубежные фильмы » Мадам / Madame (2017) BDRip 1080p | iTunes

Мадам / Madame (2017) BDRip 1080p | iTunes

СКАЧАТЬ TORRENT ФАЙЛ

Мадам / Madame

Страна: Франция

Производство: Canal+ [fr], Studio Canal, LGM Productions, C8, Made in PM
Год выпуска: 2017
Жанр: драма, мелодрама, комедия
Продолжительность: 01:31:31

Режиссер: Аманда Штерс
Авторы сценария: Аманда Штерс, Мэттью Роббинс

В ролях: Тони Коллетт, Харви Кейтель, Росси де Пальма, Майкл Смайли, Том Хьюз, Виолэйн Джилиберт, Станислас Мерхар, Сью Канн

Описание: Богатая пара в Париже собирает гостей на званый ужин. Ждут мэра Лондона и других аристократов, но за столом 13 приборов. И хозяйка из суеверия просит служанку присоединиться к трапезе. Мария оказывается за столом инкогнито, и в неё влюбляется богатый коллекционер искусства…

Перевод: Профессиональный (полное дублирование) | iTunes
Субтитры: русские, английские

Качество: BDRip 1080p
Формат: МКV
Видео кодек: AVC
Аудио кодек: АС3 | DTS
Видео: 1920×804 (2.40:1), 24.000 fps, MPEG-4 AVC ~10.2 Mbps avg
Аудио №1: 48.0 kHz, AC3 Dolby Digital, 3/2 (L,C,R,l,r) + LFE ch, ~384 kbps | RUS / DUB
Аудио №2: 48.0 kHz, Digital Theater Systems, 3/2 (L,C,R,l,r) + LFE ch, ~1509 kbps | ENG
Формат субтитров: UTF-8 Plain Text

Дата премьеры (мир): 12 июня 2017
Дата премьеры (РФ): 14 сентября 2017, «Capella Film»

Media InfoGeneral
Unique ID : 72708418980112286233307948531628983084 (0x36B321D36BE376F320B207E3F59D432C)
Complete name : Madame.2017.BDRip.1080p.Rus.Eng.mkv
Format : Matroska
Format version : Version 4 / Version 2
File size : 7.69 GiB
Duration : 1 h 31 min
Overall bit rate : 12.1 Mb/s
Movie name : Madame (2017)
Encoded date : UTC 2018-04-20 20:56:01
Writing application : mkvmerge v22.0.0 ('At The End Of The World') 64-bit
Writing library : libebml v1.3.5 + libmatroska v1.4.8

Video
ID : 1
Format : AVC
Format/Info : Advanced Video Codec
Format profile : High@L4.1
Format settings : CABAC / 4 Ref Frames
Format settings, CABAC : Yes
Format settings, RefFrames : 4 frames
Codec ID : V_MPEG4/ISO/AVC
Duration : 1 h 31 min
Bit rate : 10.2 Mb/s
Width : 1 920 pixels
Height : 804 pixels
Display aspect ratio : 2.40:1
Frame rate mode : Constant
Frame rate : 24.000 FPS
Color space : YUV
Chroma subsampling : 4:2:0
Bit depth : 8 bits
Scan type : Progressive
Bits/(Pixel*Frame) : 0.275
Stream size : 6.48 GiB (84%)
Writing library : x264 core 155 r2901 7d0ff22
Encoding settings : cabac=1 / ref=4 / deblock=1:-3:-3 / analyse=0x3:0x133 / me=umh / subme=11 / psy=1 / psy_rd=1.00:0.15 / mixed_ref=1 / me_range=24 / chroma_me=1 / trellis=2 / 8x8dct=1 / cqm=0 / deadzone=21,11 / fast_pskip=0 / chroma_qp_offset=-3 / threads=8 / lookahead_threads=1 / sliced_threads=0 / nr=0 / decimate=1 / interlaced=0 / bluray_compat=0 / constrained_intra=0 / bframes=9 / b_pyramid=2 / b_adapt=2 / b_bias=0 / direct=1 / weightb=1 / open_gop=0 / weightp=2 / keyint=240 / keyint_min=24 / scenecut=40 / intra_refresh=0 / rc_lookahead=40 / rc=crf / mbtree=0 / crf=17.0 / qcomp=0.60 / qpmin=0 / qpmax=69 / qpstep=4 / vbv_maxrate=50000 / vbv_bufsize=62500 / crf_max=0.0 / nal_hrd=none / filler=0 / ip_ratio=1.40 / pb_ratio=1.30 / aq=2:0.80
Language : English
Default : Yes
Forced : No

Audio #1
ID : 2
Format : AC-3
Format/Info : Audio Coding 3
Codec ID : A_AC3
Duration : 1 h 31 min
Bit rate mode : Constant
Bit rate : 384 kb/s
Channel(s) : 6 channels
Channel positions : Front: L C R, Side: L R, LFE
Sampling rate : 48.0 kHz
Frame rate : 31.250 FPS (1536 SPF)
Bit depth : 16 bits
Compression mode : Lossy
Stream size : 250 MiB (3%)
Title : iTunes
Language : Russian
Service kind : Complete Main
Default : Yes
Forced : Yes

Audio #2
ID : 3
Format : DTS
Format/Info : Digital Theater Systems
Codec ID : A_DTS
Duration : 1 h 31 min
Bit rate mode : Constant
Bit rate : 1 509 kb/s
Channel(s) : 6 channels
Channel positions : Front: L C R, Side: L R, LFE
Sampling rate : 48.0 kHz
Frame rate : 93.750 FPS (512 SPF)
Bit depth : 24 bits
Compression mode : Lossy
Stream size : 984 MiB (12%)
Language : English
Default : No
Forced : No

Text #1
ID : 4
Format : UTF-8
Codec ID : S_TEXT/UTF8
Codec ID/Info : UTF-8 Plain Text
Duration : 1 h 24 min
Bit rate : 115 b/s
Count of elements : 1412
Stream size : 71.4 KiB (0%)
Title : Full by Nautay
Language : Russian
Default : No
Forced : No

Text #2
ID : 5
Format : UTF-8
Codec ID : S_TEXT/UTF8
Codec ID/Info : UTF-8 Plain Text
Duration : 1 h 24 min
Bit rate : 69 b/s
Count of elements : 1412
Stream size : 42.9 KiB (0%)
Title : Full
Language : English
Default : No
Forced : No

Menu
00:00:00.000 : en:Chapter 1
00:09:23.417 : en:Chapter 2
00:18:29.833 : en:Chapter 3
00:30:22.917 : en:Chapter 4
00:39:29.583 : en:Chapter 5
00:50:54.958 : en:Chapter 6
00:59:48.500 : en:Chapter 7
01:11:21.167 : en:Chapter 8
01:20:24.625 : en:Chapter 9Скриншоты

x

Не пропустите

Battlestar Galactica Deadlock [v 1.1.58 + DLCs] (2017) PC | RePack от R.G. Catalyst

СКАЧАТЬ TORRENT ФАЙЛ Название: Battlestar Galactica Deadlock Тип издания: RePack Жанр: Strategy (TBS), Simulator, Space, ...