Главная » Видео » Зарубежные фильмы » Лето 1993-го / Estiu 1993 (2017) HDRip 1080p | GreenРай Studio

Лето 1993-го / Estiu 1993 (2017) HDRip 1080p | GreenРай Studio

СКАЧАТЬ TORRENT ФАЙЛ

Информация о фильме
Год выхода: 2017
Наименование: Лето 1993-го
Оригинальное наименование: Estiu 1993
Страна: Испания
Жанр: драма, семейный
Режиссер постановщик: Карла Симон Пипо
В главных ролях: Лайя Артигас, Бруна Кузи, Давид Вердагер, Ферми Рейксач, Монце Санс, Исабель Рокатти, Берта Пипо, Этна Кампилло, Паула Бланко

О фильме: История о жизни 6-летней девочки, оставшейся сиротой после смерти матери от СПИДа.

Файл
Качество: HDRip 1080p
Видео данные: AVI (XviD) MKV, 1920×1040 (1.85:1), 24.000 fps, 10000 Кбит/с
Аудио данные: AC3, 2 ch, 640 Кбит/с
Перевод: Любительский многоголосый (GreenРай Studio)
Продолжительность: 01:40:05

МедиаинфоGeneral
Unique ID : 238998405554083434628785217428738322129 (0xB3CD6B28D40FAAC58C63938DE6F4AED1)
Complete name : E:ГРИНРАЙEstiu.1993.З.P.BDRip.1080p.mkv
Format : Matroska
Format version : Version 4 / Version 2
File size : 7.26 GiB
Duration : 1 h 40 min
Overall bit rate mode : Constant
Overall bit rate : 10.4 Mb/s
Encoded date : UTC 2018-07-09 13:09:17
Writing application : mkvmerge v6.5.0 ('Isn't she lovely') built on Oct 20 2013 12:50:05
Writing library : libebml v1.3.0 + libmatroska v1.4.1

Video
ID : 1
Format : AVC
Format/Info : Advanced Video Codec
Format profile : Main@L4
Format settings : CABAC / 3 Ref Frames
Format settings, CABAC : Yes
Format settings, RefFrames : 3 frames
Format settings, GOP : M=1, N=15
Codec ID : V_MPEG4/ISO/AVC
Duration : 1 h 40 min
Bit rate mode : Constant
Bit rate : 10 000 kb/s
Width : 1 920 pixels
Height : 1 040 pixels
Display aspect ratio : 1.85:1
Frame rate mode : Constant
Frame rate : 24.000 FPS
Standard : NTSC
Color space : YUV
Chroma subsampling : 4:2:0
Bit depth : 8 bits
Scan type : Progressive
Bits/(Pixel*Frame) : 0.209
Stream size : 6.67 GiB (92%)
Language : English
Default : Yes
Forced : No
Color range : Limited

Audio
ID : 2
Format : AC-3
Format/Info : Audio Coding 3
Codec ID : A_AC3
Duration : 1 h 40 min
Bit rate mode : Constant
Bit rate : 640 kb/s
Channel(s) : 2 channels
Channel positions : Front: L R
Sampling rate : 48.0 kHz
Frame rate : 31.250 FPS (1536 SPF)
Bit depth : 16 bits
Compression mode : Lossy
Stream size : 458 MiB (6%)
Service kind : Complete Main
Default : Yes
Forced : No

Внимание, имеется видео и аудио реклама от спонсора показа

Скриншоты

x

Не пропустите

Victory At Sea Pacific [v 1.0.3] (2018) PC | RePack от qoob

СКАЧАТЬ TORRENT ФАЙЛ Информация: Год выпуска: 2018 Жанр: Action, Simulator, Strategy Разработчик: Evil Twin Artworks ...