Главная » Видео » Зарубежные фильмы » Кукловод / He’s Out There (2018) BDRip 1080p | L1

Кукловод / He’s Out There (2018) BDRip 1080p | L1

СКАЧАТЬ TORRENT ФАЙЛ

Информация о фильме
Название: Кукловод
Оригинальное название: He's Out There
Год выхода: 2018
Жанр: Ужасы
Режиссер: Куинн Лэшер
В ролях: Ивонн Страховски, Джастин Бруенинг, Анна Пниовски, Эбигейл Пнёвски, Стефани Коста, Джулиан Бэйли

О фильме:
Отправившись отдыхать в уединенный домик у озера, мать и две ее маленькие дочери даже не подозревают, что попали в изощренную ловушку, спланированную психопатом в маске.

Страна: США
Студия: Screen Gems, Unbroken Pictures
Продолжительность: 01:29:30
Перевод: Любительский одноголосый | Хихикающий доктор

Файл
Кодек: x.264
Качество: BDRip 1080p | Hes.Out.There.2018.1080p.BluRay.x264-LATENCY
Видео: MPEG-4 AVC, 1920×800, 8981 Kбит/с, 23.976 кадр/с
Звук: Небольшая реклама в титрах
Аудио #1: Русский ( АС3, 2ch, 256 Кбит/с, 48.0 KHz) Любительский (одноголосый, закадровый) Хихикающий доктор
Аудио #2: Английский ( DTS, 6ch, 1510 Кбит/с, 48.0 KHz)
Субтитры: английские
MediaInfo Источник: Hes.Out.There.2018.1080p.BluRay.x264-LATENCY
General
Unique ID : 180075955939844239112138053354097846995 (0x87795E19C7A8614EB31AABFFE22DAAD3)
Complete name : Hes.Out.There.2018.BDRip.1080p.mkv
Format : Matroska
Format version : Version 4
File size : 6.71 GiB
Duration : 1 h 29 min
Overall bit rate : 10.7 Mb/s
Encoded date : UTC 2018-10-08 18:12:46
Writing application : mkvmerge v7.1.0 ('Good Love') 64bit built on Jul 27 2014 13:06:55
Writing library : libebml v1.3.0 + libmatroska v1.4.1

Video
ID : 1
Format : AVC
Format/Info : Advanced Video Codec
Format profile : High@L4.1
Format settings : CABAC / 5 Ref Frames
Format settings, CABAC : Yes
Format settings, ReFrames : 5 frames
Codec ID : V_MPEG4/ISO/AVC
Duration : 1 h 29 min
Bit rate : 8 981 kb/s
Width : 1 920 pixels
Height : 800 pixels
Display aspect ratio : 2.40:1
Frame rate mode : Constant
Frame rate : 23.976 (24000/1001) FPS
Color space : YUV
Chroma subsampling : 4:2:0
Bit depth : 8 bits
Scan type : Progressive
Bits/(Pixel*Frame) : 0.244
Stream size : 5.61 GiB (84%)
Writing library : x264 core 157 r2935 545de2f
Encoding settings : cabac=1 / ref=5 / deblock=1:0:0 / analyse=0x3:0x113 / me=umh / subme=8 / psy=1 / psy_rd=1.00:0.00 / mixed_ref=1 / me_range=16 / chroma_me=1 / trellis=2 / 8x8dct=1 / cqm=0 / deadzone=21,11 / fast_pskip=0 / chroma_qp_offset=-2 / threads=25 / lookahead_threads=4 / sliced_threads=0 / nr=0 / decimate=1 / interlaced=0 / bluray_compat=0 / constrained_intra=0 / bframes=3 / b_pyramid=2 / b_adapt=1 / b_bias=0 / direct=3 / weightb=1 / open_gop=0 / weightp=2 / keyint=250 / keyint_min=23 / scenecut=40 / intra_refresh=0 / rc_lookahead=50 / rc=2pass / mbtree=1 / bitrate=8981 / ratetol=1.0 / qcomp=0.60 / qpmin=0 / qpmax=69 / qpstep=4 / cplxblur=20.0 / qblur=0.5 / ip_ratio=1.40 / aq=1:1.00
Language : English
Default : Yes
Forced : No

Audio #1
ID : 2
Format : AC-3
Format/Info : Audio Coding 3
Commercial name : Dolby Digital
Codec ID : A_AC3
Duration : 1 h 29 min
Bit rate mode : Constant
Bit rate : 256 kb/s
Channel(s) : 2 channels
Channel layout : L R
Sampling rate : 48.0 kHz
Frame rate : 31.250 FPS (1536 SPF)
Bit depth : 16 bits
Compression mode : Lossy
Stream size : 163 MiB (2%)
Language : Russian
Service kind : Complete Main
Default : Yes
Forced : No

Audio #2
ID : 3
Format : DTS
Format/Info : Digital Theater Systems
Codec ID : A_DTS
Duration : 1 h 29 min
Bit rate mode : Constant
Bit rate : 1 509 kb/s
Channel(s) : 6 channels
Channel layout : C L R Ls Rs LFE
Sampling rate : 48.0 kHz
Frame rate : 93.750 FPS (512 SPF)
Bit depth : 24 bits
Compression mode : Lossy
Stream size : 966 MiB (14%)
Language : English
Default : No
Forced : No

Text
ID : 4
Format : UTF-8
Codec ID : S_TEXT/UTF8
Codec ID/Info : UTF-8 Plain Text
Duration : 1 h 25 min
Bit rate : 27 b/s
Count of elements : 619
Stream size : 17.4 KiB (0%)
Language : English
Default : No
Forced : No

Menu
00:00:00.000 : en:00:00:00.000
00:05:49.224 : en:00:05:49.224
00:12:54.065 : en:00:12:54.065
00:20:55.504 : en:00:20:55.504
00:28:06.059 : en:00:28:06.059
00:36:00.408 : en:00:36:00.408
00:42:27.879 : en:00:42:27.879
00:52:17.217 : en:00:52:17.217
00:59:10.839 : en:00:59:10.839
01:05:24.587 : en:01:05:24.587
01:11:00.423 : en:01:11:00.423
01:19:15.250 : en:01:19:15.250
Скриншоты

x

Не пропустите

Лето 84 / Summer of 84 (2018) BDRip 720p | HDrezka Studio

СКАЧАТЬ TORRENT ФАЙЛ Информация о фильме Название: Лето 84 Оригинальное название: Summer of 84 Год ...