Главная » Видео » Зарубежные фильмы » Кровавый фестиваль / Blood Fest (2018) WEB-DLRip-AVC от OlLanDGroup | HDrezka Studio

Кровавый фестиваль / Blood Fest (2018) WEB-DLRip-AVC от OlLanDGroup | HDrezka Studio

СКАЧАТЬ TORRENT ФАЙЛ

Кровавый фестиваль / Blood Fest
«Love Horror Movies? Try Surviving One»

Год выпуска: 2018
Страна: США
Производство: Rooster Teeth Productions
Жанр: Ужасы, комедия

Режиссёр: Брайан А Миллер
В ролях: Закари Ливай, Сейшелл Гэбриел, Тейт Донован, Робби Кей, Джейкоб Баталон, Исла Червелли, Барбара Данкельман, Оливия Грэйс Эпплгейт, Джульетт Кида, Пол Огола

Перевод: Профессиональный (многоголосый закадровый) HDrezka Studio
Субтитры: Английские
Реклама: Отсутствует

Описание: Ещё ребенком Дакс стал свидетелем убийства матери, но после этого не перестал любить фильмы ужасов. Через несколько лет в компании единомышленников парень готовится поехать на «Кровавый фестиваль», посвященный самым известным картинам жанра, но отец сильно против. Все-таки пробравшись на заветное мероприятие, Дакс с друзьями вскоре обнаруживает, что название у фестиваля буквальное — фанаты фильмов ужасов сами оказываются участниками в кровавого хоррора.

Качество: WEB-DLRip-AVC | iTunes Version | Blood.Fest.2018.1080p.WEB-DL.DD5.1.H264-FGT
Продолжительность: 01:32:41

Формат: MKV
Видео кодек: MPEG-4 AVC
Аудио кодек: AC3
Видео: 1024×512 (2:1), 23,976 fps, x264 ~1 677 kbps avg, 0.133 bit/pixel
Аудио #1: 48 kHz, Audio Coding 3, 2 (L,R) ch, ~192.00 kbps avg | RUS (HDrezka Studio)
Аудио #2: 48 kHz, AC3 Dolby Digital, 3/2 (L,C,R,l,r) + LFE ch, ~384.00 kbps avg | ENG

Дата премьеры (мир): 10 марта 2018

-09-09 11:47:50
Программа кодирования : mkvmerge v25.0.0 ('Prog Noir') 64-bit
Библиотека кодирования : libebml v1.3.6 + libmatroska v1.4.9
Обложка : Yes
Attachments : cover_land.jpg / small_cover.jpg / small_cover_land.jpg / cover.jpg

Видео
Идентификатор : 1
Формат : AVC
Формат/Информация : Advanced Video Codec
Профиль формата : High@L4.1
Параметр CABAC формата : Да
Параметр ReFrames формата : 10 кадров
Идентификатор кодека : V_MPEG4/ISO/AVC
Продолжительность : 1 ч. 32 м.
Битрейт : 1677 Кбит/сек
Ширина : 1024 пикселя
Высота : 512 пикселей
Соотношение сторон : 2,000
Режим частоты кадров : Постоянный
Частота кадров : 23,976 (24000/1001) кадра/сек
Цветовое пространство : YUV
Субдискретизация насыщенности : 4:2:0
Битовая глубина : 8 бит
Тип развёртки : Прогрессивная
Бит/(Пиксели*Кадры) : 0.133
Размер потока : 1,09 Гбайт (74%)
Библиотека кодирования : x264 core 146 r2538 121396c
Настройки программы : cabac=1 / ref=10 / deblock=1:-3:-3 / analyse=0x3:0x113 / me=umh / subme=10 / psy=1 / psy_rd=0.97:0.06 / mixed_ref=1 / me_range=48 / chroma_me=1 / trellis=2 / 8x8dct=1 / cqm=0 / deadzone=21,11 / fast_pskip=1 / chroma_qp_offset=-3 / threads=6 / lookahead_threads=1 / sliced_threads=0 / nr=0 / decimate=1 / interlaced=0 / bluray_compat=0 / constrained_intra=0 / bframes=10 / b_pyramid=2 / b_adapt=2 / b_bias=0 / direct=3 / weightb=1 / open_gop=0 / weightp=2 / keyint=240 / keyint_min=23 / scenecut=40 / intra_refresh=0 / rc_lookahead=40 / rc=2pass / mbtree=0 / bitrate=1677 / ratetol=1.0 / qcomp=0.60 / qpmin=0 / qpmax=69 / qpstep=4 / cplxblur=20.0 / qblur=0.5 / vbv_maxrate=50000 / vbv_bufsize=62500 / nal_hrd=none / filler=0 / ip_ratio=1.40 / pb_ratio=1.30 / aq=1:1.00
Default : Да
Forced : Нет

Аудио #1
Идентификатор : 2
Формат : AC-3
Формат/Информация : Audio Coding 3
Расширение режима : CM (complete main)
Параметр Endianness формата : Big
Идентификатор кодека : A_AC3
Продолжительность : 1 ч. 32 м.
Вид битрейта : Постоянный
Битрейт : 192 Кбит/сек
Каналы : 2 канала
Расположение каналов : Front: L R
Частота : 48,0 КГц
Частота кадров : 31,250 кадров/сек (1536 spf)
Битовая глубина : 16 бит
Метод сжатия : С потерями
Размер потока : 127 Мбайт (9%)
Заголовок : MVO [HDRezka Studio] Язык : Russian
Default : Да
Forced : Нет

Аудио #2
Идентификатор : 3
Формат : AC-3
Формат/Информация : Audio Coding 3
Расширение режима : CM (complete main)
Параметр Endianness формата : Big
Идентификатор кодека : A_AC3
Продолжительность : 1 ч. 32 м.
Вид битрейта : Постоянный
Битрейт : 384 Кбит/сек
Каналы : 6 каналов
Расположение каналов : Front: L C R, Side: L R, LFE
Частота : 48,0 КГц
Частота кадров : 31,250 кадров/сек (1536 spf)
Битовая глубина : 16 бит
Метод сжатия : С потерями
Размер потока : 255 Мбайт (17%)
Заголовок : [Original] Язык : English
Default : Нет
Forced : Нет

Текст
Идентификатор : 4
Формат : UTF-8
Идентификатор кодека : S_TEXT/UTF8
Идентификатор кодека/Информация : UTF-8 Plain Text
Продолжительность : 1 ч. 28 м.
Битрейт : 66 бит/сек
Count of elements : 1789
Размер потока : 42,7 Кбайт (0%)
Заголовок : Full
Язык : English
Default : Нет
Forced : Нет

Меню
00:00:00.000 : en:Chapter 1
00:11:00.285 : en:Chapter 2
00:21:17.527 : en:Chapter 3
00:32:47.008 : en:Chapter 4
00:45:15.673 : en:Chapter 5
00:54:34.648 : en:Chapter 6
01:05:21.127 : en:Chapter 7
01:28:16.293 : en:Chapter 8

Скриншоты



x

Не пропустите

Добро пожаловать в Мерси / Благословение / Welcome to Mercy / Beatus (2018) WEBRip 720p | L2

СКАЧАТЬ TORRENT ФАЙЛ Информация о фильме Название: Добро пожаловать в Мерси / Благословение Оригинальное название: ...