Главная » Видео » Зарубежные фильмы » Красавица, ты любовь моя! / Gori Tere Pyaar Mein! (2013) BDRip 720p от KORSAR | L

Красавица, ты любовь моя! / Gori Tere Pyaar Mein! (2013) BDRip 720p от KORSAR | L

СКАЧАТЬ TORRENT ФАЙЛ

Красавица, ты любовь моя!

Gori Tere Pyaar Mein!

Страна: Индия
Жанр: драма, мелодрама, комедия
Год выпуска: 2013
Продолжительность: 02:24:44
Перевод: Любительский (многоголосый, закадровый)
Субтитры: русские ( на песни ), русские.

Режиссер: Пунит Мальхотра / Punit Malhotra

В ролях: Имран Кхан (Sriram Venkat), Карина Капур (Dia Sharma), Низхалгал Рави (Sriram's Father), Анупам Кхер (Collector), Шраддха Капур (Vasudha Natrajan), Эша Гупта (Cameo), Kalyani N. (Sriram's Sister-in-Law), Harshad Kumar (Villager), Сухата Кумар (Sriram's Mother), Кавеш Маджмудар, Танвир Сингх (Jaskaran), Винит Кумар Сингх

Описание: Шрирам Венкат очень поверхностный парень, который не ценит отношения, семью, друзей, жизнь и страну. Не обязательно в такой последовательности, потому что и упорядоченность его тоже не заботит. Это делает его явной «черной» овцой в семье. В какой-то момент это легкомысленный человек начинает рассказывать историю своих сумасшедших отношений с бывшей подругой Диа Шармой, общественной активисткой, которая хотела изменить мир. Притяжение первоначально было только физическим, но затем получило эмоциональный заряд и, наконец, завело их в дебри, где столкнулись идеологии и образы мыслей, что отдалило их друг от друга. Горько. Шрирам полагал, что благотворительность начинается и заканчивается в стенах дома. В то время как Диа считала, что человек должен не ждать перемен, которых хочет добиться, а делать их сам. Однако Шрирам понимает, что история с Диа не закончилась и он все еще любит ее, и что она является лучшим, что когда-либо было. .. и случится в его жизни. Но Диа переехала и сейчас находится в глухой деревушке Джумли в штате Гуджарат. Шрирам едет в эту деревушку вернуть свою любовь…

Качество: BDRip 720p
Контейнер: MKV

Видео: MPEG-4 AVC, 1280×536 (2.40:1), 4000 kbps, 24 fps, 0,243 bpp
Аудио №1: русский / AC3 / 5.1 / 48 kHz / 448 kbps / MVO ( ICG )
Аудио №2: индийский / AC3 / 5.1 / 48 kHz / 640 kbps
Навигация по главам: есть

Media Info

Формат : Matroska
Версия формата : Version 2
Размер файла : 5,15 Гбайт
Продолжительность : 2 ч. 24 м.
Общий поток : 5089 Кбит/сек
Название фильма : = Красавица, ты любовь моя / Gori Tere Pyaar Mein (2013) BDRip 720p — KORSAR =
Дата кодирования : UTC 2018-09-03 08:32:54
Программа кодирования : mkvmerge v5.8.0 ('No Sleep / Pillow') built on Sep 2 2012 15:37:04
Библиотека кодирования : libebml v1.2.3 + libmatroska v1.3.0
Attachment : Yes

Видео
Идентификатор : 1
Формат : AVC
Формат/Информация : Advanced Video Codec
Профиль формата : High@L4.1
Параметр CABAC формата : Да
Параметр ReFrames формата : 12 кадров
Идентификатор кодека : V_MPEG4/ISO/AVC
Продолжительность : 2 ч. 24 м.
Битрейт : 4000 Кбит/сек
Ширина : 1280 пикселей
Высота : 536 пикселей
Соотношение сторон : 2,40:1
Режим частоты кадров : Постоянный
Частота кадров : 24,000 кадра/сек
Цветовое пространство : YUV
Субдискретизация насыщенности : 4:2:0
Битовая глубина : 8 бит
Тип развёртки : Прогрессивная
Бит/(Пиксели*Кадры) : 0.243
Размер потока : 3,94 Гбайт (77%)
Заголовок : Красавица, ты любовь моя / Gori Tere Pyaar Mein (2013) BDRip 720p — KORSAR
Библиотека кодирования : x264 core 148 r2744kMod b97ae06
Настройки программы : cabac=1 / ref=12 / deblock=1:-3:-3 / analyse=0x3:0x113 / me=umh / subme=11 / psy=1 / fade_compensate=0.00 / psy_rd=1.02:0.04 / mixed_ref=1 / me_range=48 / chroma_me=1 / trellis=2 / 8x8dct=1 / cqm=0 / deadzone=21,11 / fast_pskip=0 / chroma_qp_offset=-3 / threads=12 / lookahead_threads=3 / sliced_threads=0 / nr=0 / decimate=0 / interlaced=0 / bluray_compat=0 / constrained_intra=0 / bframes=10 / b_pyramid=2 / b_adapt=2 / b_bias=0 / direct=3 / weightb=1 / open_gop=0 / weightp=2 / keyint=240 / keyint_min=24 / scenecut=40 / intra_refresh=0 / rc_lookahead=60 / rc=2pass / mbtree=0 / bitrate=4000 / ratetol=1.0 / qcomp=0.66 / qpmin=0 / qpmax=39 / qpstep=4 / cplxblur=20.0 / qblur=0.5 / vbv_maxrate=50000 / vbv_bufsize=62500 / nal_hrd=none / filler=0 / ip_ratio=1.40 / pb_ratio=1.30 / aq=3:1.00
Язык : Hindi
Default : Да
Forced : Нет
Основные цвета : BT.709
Характеристики трансфера : BT.709
Коэффициенты матрицы : BT.709

Аудио #1
Идентификатор : 2
Формат : AC-3
Формат/Информация : Audio Coding 3
Расширение режима : CM (complete main)
Параметр Endianness формата : Big
Идентификатор кодека : A_AC3
Продолжительность : 2 ч. 24 м.
Вид битрейта : Постоянный
Битрейт : 448 Кбит/сек
Каналы : 6 каналов
Расположение каналов : Front: L C R, Side: L R, LFE
Частота : 48,0 КГц
Битовая глубина : 16 бит
Метод сжатия : С потерями
Размер потока : 464 Мбайт (9%)
Заголовок : MVO ( ICG )
Язык : Russian
Default : Да
Forced : Нет

Аудио #2
Идентификатор : 3
Формат : AC-3
Формат/Информация : Audio Coding 3
Расширение режима : CM (complete main)
Параметр Endianness формата : Big
Идентификатор кодека : A_AC3
Продолжительность : 2 ч. 24 м.
Вид битрейта : Постоянный
Битрейт : 640 Кбит/сек
Каналы : 6 каналов
Расположение каналов : Front: L C R, Side: L R, LFE
Частота : 48,0 КГц
Битовая глубина : 16 бит
Метод сжатия : С потерями
Размер потока : 663 Мбайт (13%)
Язык : Hindi
Default : Нет
Forced : Нет

Текст #1
Идентификатор : 4
Формат : UTF-8
Идентификатор кодека : S_TEXT/UTF8
Идентификатор кодека/Информация : UTF-8 Plain Text
Заголовок : Forced
Язык : Russian
Default : Да
Forced : Нет

Текст #2
Идентификатор : 5
Формат : UTF-8
Идентификатор кодека : S_TEXT/UTF8
Идентификатор кодека/Информация : UTF-8 Plain Text
Язык : Russian
Default : Нет
Forced : Нет

Меню
00:00:00.000 : en:00:00:00.000
00:02:22.457 : en:00:02:22.457
00:05:54.500 : en:00:05:54.500
00:14:36.625 : en:00:14:36.625
00:19:11.750 : en:00:19:11.750
00:23:59.790 : en:00:23:59.790
00:28:20.583 : en:00:28:20.583
00:40:11.166 : en:00:40:11.166
00:43:35.208 : en:00:43:35.208
00:57:59.083 : en:00:57:59.083
01:03:53.333 : en:01:03:53.333
01:10:29.457 : en:01:10:29.457
01:13:58.457 : en:01:13:58.457
01:22:17.416 : en:01:22:17.416
01:29:41.500 : en:01:29:41.500
01:33:14.750 : en:01:33:14.750
01:39:46.582 : en:01:39:46.582
01:43:49.291 : en:01:43:49.291
01:46:33.125 : en:01:46:33.125
01:52:22.041 : en:01:52:22.041
01:59:29.875 : en:01:59:29.875
02:03:08.041 : en:02:03:08.041
02:20:03.583 : en:02:20:03.583

Скриншоты


x

Не пропустите

Озарк / Ozark [02х01-05 из 10] (2018) WEBRip | NewStudio

СКАЧАТЬ TORRENT ФАЙЛ Информация о фильме Название: Озарк Оригинальное название: Ozark Год выпуска: 2018 Жанр: ...