Главная » Видео » Зарубежные фильмы » Капитан / Der Hauptmann (2017) BDRip 1080p от ExKinoRay | A

Капитан / Der Hauptmann (2017) BDRip 1080p от ExKinoRay | A

СКАЧАТЬ TORRENT ФАЙЛ

Информация о фильме
Название: Капитан
Оригинальное название: Der Hauptmann
Год выпуска: 2017
Жанр: Драма, военный, история
Режиссер: Роберт Швентке
В ролях: Макс Хубахер, Милан Пешель, Фредерик Лау, Вальдемар Кобус, Александр Фелинг, Самуэль Финци, Вольфрам Кох, Евгения Анселен, Хендрик Арнст

О фильме:
Германия, апрель 1945-го. Солдаты немецкой армии массово дезертируют с фронта. Рядовой Вермахта, спасаясь от военного патруля, натыкается на застрявший в поле автомобиль. На сиденье он находит чемодан с офицерской военной формой и документы на имя капитана Вилли Херольда. Чтобы спасти свою жизнь, ему не остаётся ничего другого, кроме как, переодевшись, перевоплотиться в незнакомого ему капитана Херольда. С этого момента солдат действует согласно легенде, будто по личному указанию фюрера он должен разузнать и доложить тому об истинном положении дел в прифронтовой зоне. Встречающиеся на пути «капитана» люди – будь то хозяин постоялого двора, командование лагеря или такие же дезертиры, как и он сам – догадываются, кто перед ними на самом деле. Но все они делают вид, что принимают его за настоящего капитана, потому что у каждого из них к нему свой интерес…

Страна: Германия, Франция, Польша, Китай, Португалия
Студия: Filmgalerie 451 Alfama Films Opus Film Facing East
Продолжительность: 01:59:24
Перевод: Авторский (одноголосый, закадровый) | Ю. Сербин

Формат: MKV
Качество: BDRip 1080p (исх. Der.Hauptmann.2017.1080p.Blu-ray.REMUX.AVC.DTS-HD.MA.5.1-playBD)
Видео: MPEG-4 AVC, 1920×804 (2.40:1), 23.976 fps, 7422 Kbps, 0.201 bit/pixel
Звук:
Аудио 1: 48 kHz, AC3, 5.1, 640 Kbps | RUS |

Аудио 2: 48 kHz, DTS, 5.1, 1509 Kbps | RUS |

Аудио 3: 48 kHz, AC3, 5.1, 640 Kbps | GER
Субтитры: Русские, английские, немецкие

ЦитатаКто-то писал:
Спасибо за перевод: Spiellberg, arizonadre, tambov68, uncasual, godfrid, ArtemPoter, luka69, chontvari, gelom, mishka, shmidd, potroks, MamonTSan, river, Dervish, plastm, barvinok13, Dyermaker, ::Кот::, denise13, ilfat1975.

MIGeneral
Unique ID : 240825941241280596470392486290914683558 (0xB52D63A021FDEF0C90D548391B462AA6)
Complete name : D:Der.Hauptmann.2017.AVO.BDRip.1080p.ExKinoRay.mkv
Format : Matroska
Format version : Version 2
File size : 8.52 GiB
Duration : 1 h 59 min
Overall bit rate : 10.2 Mb/s
Movie name : Der Hauptmann 2017 from ExKinoRay
Encoded date : UTC 2018-12-14 12:37:11
Writing application : mkvmerge v5.6.0 ('Kenya Kane') built on May 27 2012 16:44:04
Writing library : libebml v1.2.3 + libmatroska v1.3.0

Video
ID : 1
Format : AVC
Format/Info : Advanced Video Codec
Format profile : High@L4.1
Format settings, CABAC : Yes
Format settings, ReFrames : 5 frames
Codec ID : V_MPEG4/ISO/AVC
Duration : 1 h 59 min
Bit rate : 7 422 kb/s
Width : 1 920 pixels
Height : 804 pixels
Display aspect ratio : 2.40:1
Frame rate mode : Constant
Frame rate : 23.976 (23976/1000) FPS
Color space : YUV
Chroma subsampling : 4:2:0
Bit depth : 8 bits
Scan type : Progressive
Bits/(Pixel*Frame) : 0.201
Stream size : 6.02 GiB (71%)
Title : Enigma
Writing library : x264 core 152 r2851 ba24899
Encoding settings : cabac=1 / ref=5 / deblock=1:-2:-2 / analyse=0x3:0x113 / me=umh / subme=10 / psy=1 / psy_rd=1.02:0.05 / mixed_ref=1 / me_range=32 / chroma_me=1 / trellis=2 / 8x8dct=1 / cqm=0 / deadzone=21,11 / fast_pskip=0 / chroma_qp_offset=-3 / threads=12 / lookahead_threads=3 / sliced_threads=0 / nr=0 / decimate=0 / interlaced=0 / bluray_compat=0 / constrained_intra=0 / bframes=10 / b_pyramid=2 / b_adapt=2 / b_bias=0 / direct=3 / weightb=1 / open_gop=0 / weightp=2 / keyint=240 / keyint_min=23 / scenecut=40 / intra_refresh=0 / rc_lookahead=40 / rc=2pass / mbtree=0 / bitrate=7422 / ratetol=1.0 / qcomp=0.60 / qpmin=0 / qpmax=51 / qpstep=4 / cplxblur=20.0 / qblur=0.5 / vbv_maxrate=50000 / vbv_bufsize=62500 / nal_hrd=none / filler=0 / ip_ratio=1.40 / pb_ratio=1.30 / aq=2:0.90
Language : English
Default : Yes
Forced : No
Color range : Limited
Color primaries : BT.709
Transfer characteristics : BT.709
Matrix coefficients : BT.709

Audio #1
ID : 2
Format : AC-3
Format/Info : Audio Coding 3
Mode extension : CM (complete main)
Format settings, Endianness : Big
Codec ID : A_AC3
Duration : 1 h 59 min
Bit rate mode : Constant
Bit rate : 640 kb/s
Channel(s) : 6 channels
Channel positions : Front: L C R, Side: L R, LFE
Sampling rate : 48.0 kHz
Frame rate : 31.250 FPS (1536 spf)
Compression mode : Lossy
Stream size : 547 MiB (6%)
Title : AVO (Serbin)
Language : Russian
Default : Yes
Forced : No

Audio #2
ID : 3
Format : DTS
Format/Info : Digital Theater Systems
Mode : 16
Format settings, Endianness : Big
Codec ID : A_DTS
Duration : 1 h 59 min
Bit rate mode : Constant
Bit rate : 1 509 kb/s
Channel(s) : 6 channels
Channel positions : Front: L C R, Side: L R, LFE
Sampling rate : 48.0 kHz
Frame rate : 93.750 FPS (512 spf)
Bit depth : 24 bits
Compression mode : Lossy
Stream size : 1.26 GiB (15%)
Title : DTS AVO (Serbin)
Language : Russian
Default : No
Forced : No

Audio #3
ID : 4
Format : AC-3
Format/Info : Audio Coding 3
Mode extension : CM (complete main)
Format settings, Endianness : Big
Codec ID : A_AC3
Duration : 1 h 59 min
Bit rate mode : Constant
Bit rate : 640 kb/s
Channel(s) : 6 channels
Channel positions : Front: L C R, Side: L R, LFE
Sampling rate : 48.0 kHz
Frame rate : 31.250 FPS (1536 spf)
Compression mode : Lossy
Stream size : 547 MiB (6%)
Language : German
Default : No
Forced : No

Text #1
ID : 5
Format : UTF-8
Codec ID : S_TEXT/UTF8
Codec ID/Info : UTF-8 Plain Text
Language : Russian
Default : No
Forced : No

Text #2
ID : 6
Format : UTF-8
Codec ID : S_TEXT/UTF8
Codec ID/Info : UTF-8 Plain Text
Language : English
Default : No
Forced : No

Text #3
ID : 7
Format : UTF-8
Codec ID : S_TEXT/UTF8
Codec ID/Info : UTF-8 Plain Text
Language : German
Default : No
Forced : No

Menu
00:00:00.000 : en:Chapter 1
00:08:22.168 : en:Chapter 2
00:16:57.516 : en:Chapter 3
00:24:09.906 : en:Chapter 4
00:36:53.710 : en:Chapter 5
00:47:40.440 : en:Chapter 6
00:58:52.820 : en:Chapter 7
01:09:22.533 : en:Chapter 8
01:20:07.010 : en:Chapter 9
01:32:54.318 : en:Chapter 10
01:44:01.026 : en:Chapter 11
01:50:09.394 : en:Chapter 12

Автор релиза:

x

Не пропустите

Майклу Джею Полларду исполнилось 80 лет

Сегодня, 30 мая, исполнилось 80 лет американскому актёру, мастеру эпизода Майклу Джею Полларду, запомнившемуся зрителям ...