Главная » Видео » Зарубежные фильмы » Импульс / Urge (2016) BDRip-AVC от New-Team | D

Импульс / Urge (2016) BDRip-AVC от New-Team | D

СКАЧАТЬ TORRENT ФАЙЛ


Импульс
Urge

«Новый оттенок твоего удовольствия»

Страна: США
Жанр: триллер

Год выпуска: 2016
Продолжительность: 01:30:40

Перевод: Профессиональный (полное дублирование) [iTunes]
Субтитры: английские (полные, SDH)
Оригинальная аудиодорожка: английский

Режиссер: Аарон Кауфман / Aaron Kaufman

В ролях: Пирс Броснан, Джастин Чатвин, Дэнни Мастерсон, Эшли Грин, Ник Тун, Алексис Нэп, Крис Гир, Бар Пали, Ки Хо, Элисон Ломан, Джаггер Давид Фишман-Сальгеро, Эрик Дэвис

Описание:
Абсолютно все ищут новых ощущений. А что если на земле есть место, где дают возможность испытать любой оттенок удовольствия? Группа друзей прилетает на остров и решает попробовать вещество, которое лишит их способности контролировать свои порывы. Теперь они могут делать все, о чем они так долго мечтали. Но как далеко они готовы зайти в поисках наивысшего наслаждения?

Релиз:

Автор рипа: stalkerok

Сэмпл

Качество видео: BDRip-AVC [Urge (2016) Blu-ray Disc -BLUEBIRD] Формат видео: MKV
Видео кодек: AVC
Аудио кодек: AC3
Видео: AVC, 2648 Кбит/сек, 1150×622 (1.85:1), 23,976 кадр/сек
Аудио №1: AC3, 384 Кбит/сек, 48 КГц, 5.1 — русский
Аудио №2: AC3, 448 Кбит/сек, 48 КГц, 5.1 — английский
Навигация по главам: есть

x264/MediaInfo
—[Information] [02.05.2018 21:41:53] x264 [info]: frame I:986 Avg QP:16.98 size: 75592
—[Information] [02.05.2018 21:41:53] x264 [info]: frame P:29862 Avg QP:19.05 size: 28081
—[Information] [02.05.2018 21:41:53] x264 [info]: frame B:99593 Avg QP:21.57 size: 8918

Общее
Уникальный идентификатор : 187372779984637006074179259045766998726 (0x8CF6AF4D51BFB8DD9A320626B95FAAC6)
Полное имя : O:!RipsUrge (2016)Urge.2016.BDRip.x264.Rus.Eng.stalkerok.New-Team.mkv
Формат : Matroska
Версия формата : Version 4 / Version 2
Размер файла : 2,21 Гбайт
Продолжительность : 1 ч. 30 м.
Общий поток : 3483 Кбит/сек
Название фильма : Urge (2016) (Rip by stalkerok)
Дата кодирования : UTC 2018-07-06 20:15:13
Программа кодирования : mkvmerge v8.6.1 ('Flying') 64bit
Библиотека кодирования : libebml v1.3.3 + libmatroska v1.4.4

Видео
Идентификатор : 1
Формат : AVC
Формат/Информация : Advanced Video Codec
Профиль формата : High@L4.1
Параметр CABAC формата : Да
Параметр ReFrames формата : 11 кадров
Идентификатор кодека : V_MPEG4/ISO/AVC
Продолжительность : 1 ч. 30 м.
Битрейт : 2649 Кбит/сек
Ширина : 1150 пикселей
Высота : 622 пикселя
Соотношение сторон : 1,85:1
Режим частоты кадров : Постоянный
Частота кадров : 23,976 (24000/1001) кадра/сек
Цветовое пространство : YUV
Субдискретизация насыщенности : 4:2:0
Битовая глубина : 8 бит
Тип развёртки : Прогрессивная
Бит/(Пиксели*Кадры) : 0.154
Размер потока : 1,68 Гбайт (76%)
Заголовок : Urge (2016) (Rip by stalkerok)
Библиотека кодирования : x264 core 155 r2901 7d0ff22
Настройки программы : cabac=1 / ref=11 / deblock=1:-3:-2 / analyse=0x3:0x133 / me=umh / subme=11 / psy=1 / psy_rd=1.00:0.00 / mixed_ref=1 / me_range=32 / chroma_me=1 / trellis=2 / 8x8dct=1 / cqm=0 / deadzone=21,11 / fast_pskip=0 / chroma_qp_offset=-2 / threads=12 / lookahead_threads=3 / sliced_threads=0 / nr=0 / decimate=1 / interlaced=0 / bluray_compat=0 / constrained_intra=0 / bframes=14 / b_pyramid=2 / b_adapt=2 / b_bias=0 / direct=3 / weightb=1 / open_gop=0 / weightp=2 / keyint=240 / keyint_min=23 / scenecut=40 / intra_refresh=0 / rc_lookahead=60 / rc=crf / mbtree=0 / crf=19.4 / qcomp=0.65 / qpmin=0 / qpmax=69 / qpstep=4 / vbv_maxrate=50000 / vbv_bufsize=62500 / crf_max=0.0 / nal_hrd=none / filler=0 / ip_ratio=1.40 / pb_ratio=1.30 / aq=3:0.80 / zones=118213,127686,q=30
Default : Да
Forced : Нет

Аудио #1
Идентификатор : 2
Формат : AC-3
Формат/Информация : Audio Coding 3
Расширение режима : CM (complete main)
Параметр Endianness формата : Big
Идентификатор кодека : A_AC3
Продолжительность : 1 ч. 30 м.
Вид битрейта : Постоянный
Битрейт : 384 Кбит/сек
Каналы : 6 каналов
Расположение каналов : Front: L C R, Side: L R, LFE
Частота : 48,0 КГц
Частота кадров : 31,250 кадров/сек (1536 spf)
Метод сжатия : С потерями
Размер потока : 249 Мбайт (11%)
Язык : Russian
Default : Да
Forced : Нет

Аудио #2
Идентификатор : 3
Формат : AC-3
Формат/Информация : Audio Coding 3
Расширение режима : CM (complete main)
Параметр Endianness формата : Big
Идентификатор кодека : A_AC3
Продолжительность : 1 ч. 30 м.
Вид битрейта : Постоянный
Битрейт : 448 Кбит/сек
Каналы : 6 каналов
Расположение каналов : Front: L C R, Side: L R, LFE
Частота : 48,0 КГц
Частота кадров : 31,250 кадров/сек (1536 spf)
Метод сжатия : С потерями
Размер потока : 291 Мбайт (13%)
Язык : English
Default : Нет
Forced : Нет

Текст #1
Идентификатор : 4
Формат : UTF-8
Идентификатор кодека : S_TEXT/UTF8
Идентификатор кодека/Информация : UTF-8 Plain Text
Продолжительность : 1 ч. 27 м.
Битрейт : 58 бит/сек
Count of elements : 931
Размер потока : 37,6 Кбайт (0%)
Язык : English
Default : Нет
Forced : Нет

Текст #2
Идентификатор : 5
Формат : UTF-8
Идентификатор кодека : S_TEXT/UTF8
Идентификатор кодека/Информация : UTF-8 Plain Text
Продолжительность : 1 ч. 27 м.
Битрейт : 61 бит/сек
Count of elements : 1001
Размер потока : 39,3 Кбайт (0%)
Заголовок : SDH
Язык : English
Default : Нет
Forced : Нет

Меню
00:00:00.000 : en:Chapter 1
00:05:49.932 : en:Chapter 2
00:12:17.235 : en:Chapter 3
00:15:08.782 : en:Chapter 4
00:20:13.002 : en:Chapter 5
00:24:56.744 : en:Chapter 6
00:31:02.067 : en:Chapter 7
00:35:52.608 : en:Chapter 8
00:39:56.059 : en:Chapter 9
00:45:06.704 : en:Chapter 10
00:51:05.061 : en:Chapter 11
00:56:21.710 : en:Chapter 12
01:00:50.021 : en:Chapter 13
01:05:21.958 : en:Chapter 14
01:09:44.137 : en:Chapter 15
01:16:12.649 : en:Chapter 16


x

Не пропустите

Ana Popovic — Like It on Top (2018) MP3

СКАЧАТЬ TORRENT ФАЙЛ Исполнитель: Ana Popovic Название: Like It on Top Год: 2018 Жанр: Blues, ...