Главная » Видео » Зарубежные фильмы » Игра Джеральда / Gerald’s Game (2017) WEBRip-AVC от New-Team | FocusStudio

Игра Джеральда / Gerald’s Game (2017) WEBRip-AVC от New-Team | FocusStudio

СКАЧАТЬ TORRENT ФАЙЛ


Группа New-Team ВКонтакте
Присоединяйтесь!

Игра Джеральда
Gerald's Game

Страна: США
Жанр: ужасы, триллер

Год выпуска: 2017
Продолжительность: 01:43:24

Перевод: Профессиональный (многоголосый, закадровый) [FocusStudio]
Субтитры: English, German, Spanish, French, Italian
Оригинальная аудиодорожка: английский

Режиссер: Майк Флэнеган / Mike Flanagan

В ролях: Карла Гуджино, Брюс Гринвуд, Генри Томас, Карел Стрёйкен, Кейт Сигел, Кьяра Аурелия, Натали Роерс, Гвендолин Муламба, Джон Артур, Tom Glynn, Кимберли Баттиста, Stu Cookson

Описание:
После того, как ее муж падает с сердечным приступом в разгаре интимной игры, молодая женщина остается прикованной к кровати. Но ее одиночество будет недолгим. Все страхи, которые она когда-либо испытывала в жизни, вернутся в одночасье в уединенный дом, мгновенно превратившийся в зловещую камеру пыток.

Релиз:

Автор рипа: stalkerok

Сэмпл

Качество видео: WEBRip-AVC [Geralds.Game.2017.2160p.NF.WEBRip.DD5.1.x264-NTb] Формат видео: MKV
Видео кодек: AVC
Аудио кодек: AAC
Видео: 871 Кбит/сек, 960*402 (2,40:1), в 23,976 (24000/1001) кадра/сек, AVC
Аудио №1: русский, 64,0 Кбит/сек, 48,0 КГц / 24,0 КГц, 2 канала, AAC (HE-AAC / LC)
Аудио №2: английский, 64,0 Кбит/сек, 48,0 КГц / 24,0 КГц, 2 канала, AAC (HE-AAC / LC)

x264/MediaInfo

x264 [info]: frame I:1265 Avg QP:13.06 size: 40660
x264 [info]: frame P:29383 Avg QP:15.04 size: 11182
x264 [info]: frame B:118113 Avg QP:17.74 size: 2503

Общее
Уникальный идентификатор : 225078145702875117719299187112525936841 (0xA954795C3BF3DA86A5A5DE1D9777B8C9)
Полное имя : M:!Rips2017Gerald's GameGeralds.Game.2017.WEBRip-AVC.RUS.stalkerok.new-team.mkv
Формат : Matroska
Версия формата : Version 4 / Version 2
Размер файла : 741 Мбайт
Продолжительность : 1 ч. 43 м.
Общий поток : 1002 Кбит/сек
Название фильма : Gerald's Game (2017) (Rip by stalkerok)
Дата кодирования : UTC 2017-10-14 20:04:12
Программа кодирования : mkvmerge v8.6.1 ('Flying') 64bit
Библиотека кодирования : libebml v1.3.3 + libmatroska v1.4.4

Видео
Идентификатор : 1
Формат : AVC
Формат/Информация : Advanced Video Codec
Профиль формата : High@L4.1
Параметр CABAC формата : Да
Параметр ReFrames формата : 16 кадров
Идентификатор кодека : V_MPEG4/ISO/AVC
Продолжительность : 1 ч. 43 м.
Битрейт : 871 Кбит/сек
Ширина : 960 пикселей
Высота : 402 пикселя
Соотношение сторон : 2,40:1
Режим частоты кадров : Постоянный
Частота кадров : 23,976 (24000/1001) кадра/сек
Цветовое пространство : YUV
Субдискретизация насыщенности : 4:2:0
Битовая глубина : 8 бит
Тип развёртки : Прогрессивная
Бит/(Пиксели*Кадры) : 0.094
Размер потока : 644 Мбайт (87%)
Заголовок : Gerald's Game (2017) (Rip by stalkerok)
Библиотека кодирования : x264 core 150 r2833kMod df79067
Настройки программы : cabac=1 / ref=16 / deblock=1:-3:-2 / analyse=0x3:0x133 / me=umh / subme=11 / psy=1 / fade_compensate=0.00 / psy_rd=1.00:0.00 / mixed_ref=1 / me_range=32 / chroma_me=1 / trellis=2 / 8x8dct=1 / cqm=0 / deadzone=21,11 / fast_pskip=0 / chroma_qp_offset=-2 / threads=12 / lookahead_threads=3 / sliced_threads=0 / nr=0 / decimate=1 / interlaced=0 / bluray_compat=0 / constrained_intra=0 / bframes=16 / b_pyramid=2 / b_adapt=2 / b_bias=0 / direct=3 / weightb=1 / open_gop=0 / weightp=2 / keyint=240 / keyint_min=23 / scenecut=40 / intra_refresh=0 / rc_lookahead=60 / rc=crf / mbtree=0 / crf=18.1000 / qcomp=0.65 / qpmin=0 / qpmax=69 / qpstep=4 / vbv_maxrate=50000 / vbv_bufsize=62500 / crf_max=0.0 / nal_hrd=none / filler=0 / ip_ratio=1.40 / pb_ratio=1.30 / aq=3:0.90 / zones=140148,148760,q=34
Default : Да
Forced : Нет

Аудио #1
Идентификатор : 2
Формат : AAC
Формат/Информация : Advanced Audio Codec
Профиль формата : HE-AAC / LC
Идентификатор кодека : A_AAC
Продолжительность : 1 ч. 43 м.
Битрейт : 64,0 Кбит/сек
Каналы : 2 канала
Расположение каналов : Front: L R
Частота : 48,0 КГц / 24,0 КГц
Частота кадров : 23,438 кадра/сек (1024 spf)
Метод сжатия : С потерями
Задержка видео : 31 мс.
Размер потока : 47,3 Мбайт (6%)
Язык : Russian
Default : Да
Forced : Нет

Аудио #2
Идентификатор : 3
Формат : AAC
Формат/Информация : Advanced Audio Codec
Профиль формата : HE-AAC / LC
Идентификатор кодека : A_AAC
Продолжительность : 1 ч. 43 м.
Битрейт : 64,0 Кбит/сек
Каналы : 2 канала
Расположение каналов : Front: L R
Частота : 48,0 КГц / 24,0 КГц
Частота кадров : 23,438 кадра/сек (1024 spf)
Метод сжатия : С потерями
Задержка видео : 31 мс.
Размер потока : 47,3 Мбайт (6%)
Язык : English
Default : Нет
Forced : Нет

Текст #1
Идентификатор : 4
Формат : UTF-8
Идентификатор кодека : S_TEXT/UTF8
Идентификатор кодека/Информация : UTF-8 Plain Text
Продолжительность : 1 ч. 36 м.
Битрейт : 48 бит/сек
Count of elements : 1060
Размер потока : 34,2 Кбайт (0%)
Язык : English
Default : Нет
Forced : Нет

Текст #2
Идентификатор : 5
Формат : UTF-8
Идентификатор кодека : S_TEXT/UTF8
Идентификатор кодека/Информация : UTF-8 Plain Text
Продолжительность : 1 ч. 42 м.
Битрейт : 45 бит/сек
Count of elements : 1012
Размер потока : 34,0 Кбайт (0%)
Язык : German
Default : Нет
Forced : Нет

Текст #3
Идентификатор : 6
Формат : UTF-8
Идентификатор кодека : S_TEXT/UTF8
Идентификатор кодека/Информация : UTF-8 Plain Text
Продолжительность : 1 ч. 42 м.
Битрейт : 40 бит/сек
Count of elements : 1016
Размер потока : 30,2 Кбайт (0%)
Язык : Spanish
Default : Нет
Forced : Нет

Текст #4
Идентификатор : 7
Формат : UTF-8
Идентификатор кодека : S_TEXT/UTF8
Идентификатор кодека/Информация : UTF-8 Plain Text
Продолжительность : 1 ч. 42 м.
Битрейт : 46 бит/сек
Count of elements : 1019
Размер потока : 34,5 Кбайт (0%)
Язык : French
Default : Нет
Forced : Нет

Текст #5
Идентификатор : 8
Формат : UTF-8
Идентификатор кодека : S_TEXT/UTF8
Идентификатор кодека/Информация : UTF-8 Plain Text
Продолжительность : 1 ч. 42 м.
Битрейт : 43 бит/сек
Count of elements : 984
Размер потока : 32,9 Кбайт (0%)
Язык : Italian
Default : Нет
Forced : Нет


x

Не пропустите

Черновик (2018) BDRip-AVC от HELLYWOOD | GER Transfer | Лицензия

СКАЧАТЬ TORRENT ФАЙЛ Год выпуска: 2018 Производство: Россия / Новые люди Жанр: фэнтези Продолжительность: 01:55:35 ...