Главная » Видео » Зарубежные фильмы » Хорошее время / Good Time (2017) WEB-DLRip-AVC от ExKinoRay | iTunes

Хорошее время / Good Time (2017) WEB-DLRip-AVC от ExKinoRay | iTunes

СКАЧАТЬ TORRENT ФАЙЛ

Информация о фильме
Название: Хорошее время
Оригинальное название: Good Time
Год выхода: 2017
Жанр: Триллер, драма, криминал
Режиссер: Бен Сэфди, Джошуа Сэфди
В ролях: Роберт Паттинсон, Бен Сэфди, Taliah Webster, Дженнифер Джейсон Ли, Баркхад Абди, Рон Браунштейн, Peter Verby, Саида Мансур, Gladys Mathon, Роуз Грегорио

О фильме :
Отчаявшись найти работу и достать деньги на оплату счетов, Конни планирует ограбление банка. Чтобы осуществить налет, ему обязательно необходим напарник, но ему некого взять с собой кроме своего родного брата Ника, страдающего умственными отклонениями. Конни берет Ника с собой, однако попытка ограбления оборачивается провалом. Ник, чуть замешкавшись, попадает в руки полиции, а у Конни в руках оказывается сумка с деньгами, которая взрывается и пачкает его краской с головы до ног. Чувствуя свою вину за брата, а также понимая, как тяжело Ник будет переносить каждый день без помощи близкого человека, Конни решает, во что бы то ни стало, вытащить брата из рук полиции. В течение одной ночи, полной адреналина, Конни предпринимает отчаянные попытки пробраться к Нику и освободить его.

Страна: США
Студия: Elara Pictures, Rhea Films (II)
Продолжительность: 01:41:12
Перевод: Профессиональный (многоголосый, закадровый) | iTunes

Файл
Формат: MKV
Качество: WEB-DLRip-AVC
Видео: MPEG-4 AVC , 768×320, ~ 953 Кбит/с
Аудио:

AAC -LC, 2 ch, ~ 76 Кбит/с

MIОбщее
Уникальный идентификатор : 191908828286390376513470855664536884112 (0x90604BC007CE322DB375B57A51979390)
Полное имя : D:MOVIESGood.Time.2O17.ExKinoRay.mkv
Формат : Matroska
Версия формата : Version 2
Размер файла : 746 Мбайт
Продолжительность : 1 ч. 41 м.
Общий поток : 1031 Кбит/сек
Дата кодирования : UTC 2017-10-26 01:48:35
Программа кодирования : mkvmerge v17.0.0 ('Be Ur Friend') 64-bit
Библиотека кодирования : libebml v1.3.5 + libmatroska v1.4.8

Видео
Идентификатор : 1
Формат : AVC
Формат/Информация : Advanced Video Codec
Профиль формата : High@L4.1
Параметр CABAC формата : Да
Параметр RefFrames формата : 10 кадров
Идентификатор кодека : V_MPEG4/ISO/AVC
Продолжительность : 1 ч. 41 м.
Битрейт : 953 Кбит/сек
Ширина : 768 пикселей
Высота : 320 пикселей
Соотношение сторон : 2,40:1
Режим частоты кадров : Постоянный
Частота кадров : 24,000 кадра/сек
Цветовое пространство : YUV
Субдискретизация насыщенности : 4:2:0
Битовая глубина : 8 бит
Тип развёртки : Прогрессивная
Бит/(Пиксели*Кадры) : 0.162
Размер потока : 690 Мбайт (92%)
Библиотека кодирования : x264 core 152 r2851kMod ba24899
Настройки программы : cabac=1 / ref=10 / deblock=1:-3:-3 / analyse=0x3:0x133 / me=umh / subme=11 / psy=1 / fade_compensate=0.00 / psy_rd=1.00:0.15 / mixed_ref=1 / me_range=32 / chroma_me=1 / trellis=2 / 8x8dct=1 / cqm=0 / deadzone=21,11 / fast_pskip=0 / chroma_qp_offset=-3 / threads=6 / lookahead_threads=1 / sliced_threads=0 / nr=0 / decimate=0 / interlaced=0 / bluray_compat=0 / constrained_intra=0 / bframes=10 / b_pyramid=2 / b_adapt=2 / b_bias=0 / direct=3 / weightb=1 / open_gop=0 / weightp=2 / keyint=240 / keyint_min=23 / scenecut=40 / intra_refresh=0 / rc_lookahead=40 / rc=2pass / mbtree=1 / bitrate=953 / ratetol=1.0 / qcomp=0.60 / qpmin=0 / qpmax=69 / qpstep=4 / cplxblur=20.0 / qblur=0.5 / vbv_maxrate=50000 / vbv_bufsize=62500 / nal_hrd=none / filler=0 / ip_ratio=1.40 / aq=3:1.00
Default : Да
Forced : Нет

Аудио
Идентификатор : 2
Формат : AAC
Формат/Информация : Advanced Audio Codec
Профиль формата : LC
Идентификатор кодека : A_AAC
Продолжительность : 1 ч. 41 м.
Битрейт : 76,0 Кбит/сек
Каналы : 2 канала
Расположение каналов : Front: L R
Частота : 48,0 КГц
Частота кадров : 46,875 кадров/сек (1024 SPF)
Метод сжатия : С потерями
Задержка видео : 9 мс.
Размер потока : 55,0 Мбайт (7%)
Язык : Russian
Default : Да
Forced : Нет
Скриншоты

x

Не пропустите

Фото на память (2018) WEB-DLRip | iTunes

СКАЧАТЬ TORRENT ФАЙЛ Информация о фильме Название: Фото на память Год выхода: 2018 Жанр: Триллер, ...