Главная » Видео » Зарубежные фильмы » Хан Соло: Звёздные Войны. Истории / Solo: A Star Wars Story (2018) BDRip 1080p от OlLanDGroup | Локализованная версия | Лицензия

Хан Соло: Звёздные Войны. Истории / Solo: A Star Wars Story (2018) BDRip 1080p от OlLanDGroup | Локализованная версия | Лицензия

СКАЧАТЬ TORRENT ФАЙЛ

Информация о фильме

Название: Хан Соло: Звёздные Войны. Истории
Оригинальное название: Solo: A Star Wars Story
Год выпуска: 2018
Жанр: Фантастика, фэнтези, боевик, приключения
Выпущено: США, Lucasfilm, Walt Disney Pictures, Allison Shearmur Productions, Imagine Entertainment
Режиссер: Рон Ховард
В ролях: Олден Эренрайк, Йонас Суотамо, Вуди Харрельсон, Эмилия Кларк, Дональд Гловер, Тэнди Ньютон, Фиби Уоллер-Бридж, Пол Беттани, Джон Фавро, Линда Хант

О фильме: Фильм расскажет о похождениях юного космического сорвиголовы Хана Соло и его верного напарника Чубакки и о том, как они стали самыми быстрыми пилотами и самыми хитрыми контрабандистами далёкой Галактики.

Качество: BDRip (1080p)
Видео: MPEG-4 AVC, 6004 Кбит/с, 1920×804, 23.976 Кадр/c
Аудио: Русский (AC3, 6 ch, 640 Кбит/с), английский (DTS, 6 ch, 1509 Кбит/c)
Размер: 7.68 ГБ
Продолжительность: 02:14:47
Перевод: Дублированный
Субтитры: Русские, английские

Сохранены оригинальные чаптеры как на Blu-Ray.
Озвучивание: Дублированное (Лицензия)
Субтитры: Русские (форсированные, полные, SDH), английские (форсированные, полные)
Исходник: Blu-ray CEE (Локализованный видеоряд)

x264
x264 [info]: frame I:1468 Avg QP:14.50 size:186915
x264 [info]: frame P:50906 Avg QP:17.93 size: 53990
x264 [info]: frame B:141512 Avg QP:18.78 size: 21503
x264 [info]: consecutive B-frames: 6.8% 6.6% 8.8% 11.0% 16.6% 38.0% 7.0% 1.1% 1.6% 1.3% 1.2%
x264 [info]: mb I I16..4: 10.3% 76.4% 13.3%
x264 [info]: mb P I16..4: 1.8% 8.4% 0.9% P16..4: 34.0% 36.5% 8.6% 1.0% 0.1% skip: 8.6%
x264 [info]: mb B I16..4: 0.1% 1.0% 0.1% B16..8: 41.3% 19.0% 2.1% direct: 4.6% skip:31.8% L0:46.2% L1:48.1% BI: 5.7%
x264 [info]: 8×8 transform intra:77.4% inter:66.5%
x264 [info]: direct mvs spatial:98.5% temporal:1.5%
x264 [info]: coded y,uvDC,uvAC intra: 78.7% 75.9% 44.5% inter: 22.8% 25.1% 6.8%
x264 [info]: i16 v,h,dc,p: 16% 14% 8% 62%
x264 [info]: i8 v,h,dc,ddl,ddr,vr,hd,vl,hu: 9% 7% 7% 11% 14% 13% 14% 11% 13%
x264 [info]: i4 v,h,dc,ddl,ddr,vr,hd,vl,hu: 22% 7% 11% 8% 12% 10% 11% 8% 10%
x264 [info]: i8c dc,h,v,p: 38% 28% 19% 15%
x264 [info]: Weighted P-Frames: Y:5.9% UV:4.0%
x264 [info]: ref P L0: 50.5% 6.6% 22.4% 9.9% 8.3% 2.2% 0.2%
x264 [info]: ref B L0: 72.3% 19.7% 6.4% 1.6%
x264 [info]: ref B L1: 90.4% 9.6%
x264 [info]: kb/s:6000.71

Инфо-файл
Общее
Уникальный идентификатор : 187450160166532289989711617755968868112 (0x8D059670865353E98FD81CFF2C568F10)
Полное имя : D:ЗагрузкиSolo.A.Star.Wars.Story.2018.x264.BDRip.(1080p).OlLanDGroup.mkv
Формат : Matroska
Версия формата : Version 4 / Version 2
Размер файла : 7,68 Гбайт
Продолжительность : 2 ч. 14 м.
Общий поток : 8153 Кбит/сек
Название фильма : Хан Соло: Звёздные Войны. Истории.2018.Rip by: ollan
Дата кодирования : UTC 2018-09-17 02:39:07
Программа кодирования : mkvmerge v6.5.0 ('Isn't she lovely') built on Oct 20 2013 12:50:05
Библиотека кодирования : libebml v1.3.0 + libmatroska v1.4.1
Обложка : Yes
Attachments : Cover — Solo.A.Star.Wars.Story.png

Видео
Идентификатор : 1
Формат : AVC
Формат/Информация : Advanced Video Codec
Профиль формата : High@L4.1
Настройки формата : CABAC / 5 Ref Frames
Параметр CABAC формата : Да
Параметр ReFrames формата : 5 кадров
Идентификатор кодека : V_MPEG4/ISO/AVC
Продолжительность : 2 ч. 14 м.
Битрейт : 6004 Кбит/сек
Ширина : 1920 пикселей
Высота : 804 пикселя
Соотношение сторон : 2,40:1
Режим частоты кадров : Постоянный
Частота кадров : 23,976 (24000/1001) кадра/сек
Цветовое пространство : YUV
Субдискретизация насыщенности : 4:2:0
Битовая глубина : 8 бит
Тип развёртки : Прогрессивная
Бит/(Пиксели*Кадры) : 0.162
Размер потока : 5,50 Гбайт (72%)
Библиотека кодирования : x264 core 146 r2538 121396c
Настройки программы : cabac=1 / ref=5 / deblock=1:-2:-3 / analyse=0x3:0x133 / me=umh / subme=11 / psy=1 / psy_rd=0.90:0.05 / mixed_ref=1 / me_range=64 / chroma_me=1 / trellis=2 / 8x8dct=1 / cqm=0 / deadzone=21,11 / fast_pskip=0 / chroma_qp_offset=-3 / threads=12 / lookahead_threads=3 / sliced_threads=0 / nr=0 / decimate=0 / interlaced=0 / bluray_compat=0 / constrained_intra=0 / bframes=10 / b_pyramid=2 / b_adapt=2 / b_bias=0 / direct=3 / weightb=1 / open_gop=0 / weightp=2 / keyint=240 / keyint_min=23 / scenecut=40 / intra_refresh=0 / rc_lookahead=60 / rc=2pass / mbtree=1 / bitrate=6004 / ratetol=1.0 / qcomp=0.60 / qpmin=0 / qpmax=69 / qpstep=4 / cplxblur=20.0 / qblur=0.5 / vbv_maxrate=50000 / vbv_bufsize=62500 / nal_hrd=none / filler=0 / ip_ratio=1.40 / aq=1:1.00
Язык : English
Default : Да
Forced : Нет

Аудио #1
Идентификатор : 2
Формат : AC-3
Формат/Информация : Audio Coding 3
Идентификатор кодека : A_AC3
Продолжительность : 2 ч. 14 м.
Вид битрейта : Постоянный
Битрейт : 640 Кбит/сек
Каналы : 6 каналов
Расположение каналов : Front: L C R, Side: L R, LFE
Частота : 48,0 КГц
Частота кадров : 31,250 кадров/сек (1536 SPF)
Битовая глубина : 16 бит
Метод сжатия : С потерями
Размер потока : 617 Мбайт (8%)
Заголовок : Дублированный (Лицензия)
Язык : Russian
Service kind : Complete Main
Default : Да
Forced : Нет

Аудио #2
Идентификатор : 3
Формат : DTS
Формат/Информация : Digital Theater Systems
Идентификатор кодека : A_DTS
Продолжительность : 2 ч. 14 м.
Вид битрейта : Постоянный
Битрейт : 1509 Кбит/сек
Каналы : 6 каналов
Расположение каналов : Front: L C R, Side: L R, LFE
Частота : 48,0 КГц
Частота кадров : 93,750 кадра/сек (512 SPF)
Битовая глубина : 24 бит
Метод сжатия : С потерями
Размер потока : 1,42 Гбайт (19%)
Язык : English
Default : Нет
Forced : Нет

Текст #1
Идентификатор : 4
Формат : UTF-8
Идентификатор кодека : S_TEXT/UTF8
Идентификатор кодека/Информация : UTF-8 Plain Text
Заголовок : Forced
Язык : Russian
Default : Да
Forced : Нет

Текст #2
Идентификатор : 5
Формат : UTF-8
Идентификатор кодека : S_TEXT/UTF8
Идентификатор кодека/Информация : UTF-8 Plain Text
Заголовок : Full
Язык : Russian
Default : Нет
Forced : Нет

Текст #3
Идентификатор : 6
Формат : UTF-8
Идентификатор кодека : S_TEXT/UTF8
Идентификатор кодека/Информация : UTF-8 Plain Text
Заголовок : SDH
Язык : Russian
Default : Нет
Forced : Нет

Текст #4
Идентификатор : 7
Формат : UTF-8
Идентификатор кодека : S_TEXT/UTF8
Идентификатор кодека/Информация : UTF-8 Plain Text
Заголовок : Forced
Язык : English
Default : Нет
Forced : Нет

Текст #5
Идентификатор : 8
Формат : UTF-8
Идентификатор кодека : S_TEXT/UTF8
Идентификатор кодека/Информация : UTF-8 Plain Text
Заголовок : Full
Язык : English
Default : Нет
Forced : Нет

Меню
00:00:00.000 : en:Chapter 01
00:00:53.845 : en:Chapter 02
00:02:10.213 : en:Chapter 03
00:03:53.149 : en:Chapter 04
00:06:00.485 : en:Chapter 05
00:09:27.566 : en:Chapter 06
00:13:16.045 : en:Chapter 07
00:14:14.019 : en:Chapter 08
00:16:12.262 : en:Chapter 09
00:19:45.100 : en:Chapter 10
00:22:43.820 : en:Chapter 11
00:24:37.267 : en:Chapter 12
00:27:00.035 : en:Chapter 13
00:30:02.926 : en:Chapter 14
00:32:54.681 : en:Chapter 15
00:39:09.764 : en:Chapter 16
00:41:59.225 : en:Chapter 17
00:43:20.180 : en:Chapter 18
00:44:32.127 : en:Chapter 19
00:48:03.755 : en:Chapter 20
00:51:58.323 : en:Chapter 21
00:53:17.527 : en:Chapter 22
00:57:23.523 : en:Chapter 23
01:00:16.779 : en:Chapter 24
01:02:40.882 : en:Chapter 25
01:04:51.262 : en:Chapter 26
01:05:29.508 : en:Chapter 27
01:07:12.027 : en:Chapter 28
01:08:05.915 : en:Chapter 29
01:10:00.112 : en:Chapter 30
01:12:44.193 : en:Chapter 31
01:14:40.851 : en:Chapter 32
01:18:30.872 : en:Chapter 33
01:23:15.740 : en:Chapter 34
01:26:32.645 : en:Chapter 35
01:30:33.136 : en:Chapter 36
01:35:19.672 : en:Chapter 37
01:37:04.860 : en:Chapter 38
01:38:52.801 : en:Chapter 39
01:41:18.530 : en:Chapter 40
01:43:02.676 : en:Chapter 41
01:45:27.821 : en:Chapter 42
01:46:32.177 : en:Chapter 43
01:49:45.996 : en:Chapter 44
01:53:33.890 : en:Chapter 45
01:57:13.901 : en:Chapter 46
01:58:55.127 : en:Chapter 47
02:01:34.829 : en:Chapter 48
02:03:20.893 : en:Chapter 49
02:06:09.353 : en:Chapter 50
02:14:46.453 : en:Chapter 51

Скриншоты



x

Не пропустите

Город героев: Новая история / Big Hero 6 The Series [S01] (2017) WEBRip 1080p | IdeaFilm

СКАЧАТЬ TORRENT ФАЙЛ Название: Город Героев: Новая История Оригинальное название: Big Hero 6: The Series ...