Главная » Видео » Зарубежные фильмы » Голос улиц / Straight Outta Compton (2015) BDRip 1080p от Переулка Переводмана | Unrated Director’s Cut | A

Голос улиц / Straight Outta Compton (2015) BDRip 1080p от Переулка Переводмана | Unrated Director’s Cut | A

СКАЧАТЬ TORRENT ФАЙЛ

Название: Голос улиц
Оригинальное название: Straight Outta Compton
Год выхода: 2015

Страна: США
Студия: Universal Pictures, Legendary Entertainment, New Line Cinema
Продолжительность: 02:46:44
Жанр: драма, криминал, биография, история, музыка

Режиссер: Ф. Гэри Грей
В ролях: О’Ши Джексон мл., Кори Хоукинс, Джейсон Митчелл, Нил Браун мл., Элдис Ходж, Марлон Йэтс мл., Р. Маркус Тейлор, Карра Паттерсон, Александра Шипп, Пол Джаматти, …

Перевод: Авторский (одноголосый, закадровый) Котов Вячеслав Олегович

О фильме: 1987 год. Пятеро молодых и дерзких парней из пригорода Лос-Анджелеса начинают свой стремительный путь к славе… Они станут голосом улиц, и весь мир будет у ног бунтарей из N.W.A.…

Кодек: x264
Качество: BDRip 1080p
Видео: 1920×800, 8000 kbps, 23,976 fps
Аудио #1: AC-3 , 6 ch, 640 kbps (Rus) — AVO Котов Вячеслав Олегович (mupoxa)
Аудио #2: DTS , 6 ch, 1509 kbps (Eng)
Субтитры: английские

Дополнительная информацияПеревод и озвучка Вячеслава Котова доступны благодаря Переулку Переводмана и marshall cogburn, Loki1982, stimco, OMG_Hell_Yeah, sivservik, Saviow, iVov4ik, Wise_Master, ziox, shagrath88, Старый, stevnin
MediaInfo
x264 [info]: frame I:1533 Avg QP:11.47 size:171147
x264 [info]: frame P:63490 Avg QP:13.95 size: 74852
x264 [info]: frame B:174853 Avg QP:15.53 size: 28532
x264 [info]: consecutive B-frames: 4.1% 6.5% 13.9% 28.9% 18.1% 16.6% 3.4% 7.3% 0.6% 0.1% 0.1% 0.2% 0.2%

Общее
Уникальный идентификатор : 178537155412535548032178941334433741129 (0x865101608C90414993FFD0C7248EB949)
Полное имя : Голос улиц (Straight Outta Compton) 2015 BDRip 1080p.mkv
Формат : Matroska
Версия формата : Version 2
Размер файла : 11,8 Гбайт
Продолжительность : 2 ч. 46 м.
Общий поток : 10,2 Мбит/сек
Дата кодирования : UTC 2018-06-12 18:03:40
Программа кодирования : mkvmerge v4.0.0 ('The Stars were mine') сборка от Jun 6 2010 16:18:42
Библиотека кодирования : libebml v1.0.0 + libmatroska v1.0.0

Видео
Идентификатор : 1
Формат : AVC
Формат/Информация : Advanced Video Codec
Профиль формата : High@L4.1
Параметр CABAC формата : Да
Параметр ReFrames формата : 5 кадров
Идентификатор кодека : V_MPEG4/ISO/AVC
Продолжительность : 2 ч. 46 м.
Битрейт : 8000 Кбит/сек
Ширина : 1920 пикселей
Высота : 800 пикселей
Соотношение сторон : 2,40:1
Режим частоты кадров : Постоянный
Частота кадров : 23,976 (24000/1001) кадра/сек
Цветовое пространство : YUV
Субдискретизация насыщенности : 4:2:0
Битовая глубина : 8 бит
Тип развёртки : Прогрессивная
Бит/(Пиксели*Кадры) : 0.217
Размер потока : 9,08 Гбайт (77%)
Библиотека кодирования : x264 core 146 r2538 121396c
Настройки программы : cabac=1 / ref=5 / deblock=1:-3:-3 / analyse=0x3:0x133 / me=umh / subme=11 / psy=1 / psy_rd=1.00:0.00 / mixed_ref=1 / me_range=32 / chroma_me=1 / trellis=2 / 8x8dct=1 / cqm=0 / deadzone=21,11 / fast_pskip=0 / chroma_qp_offset=-2 / threads=12 / lookahead_threads=2 / sliced_threads=0 / nr=0 / decimate=0 / interlaced=0 / bluray_compat=0 / constrained_intra=0 / bframes=12 / b_pyramid=2 / b_adapt=2 / b_bias=0 / direct=3 / weightb=1 / open_gop=0 / weightp=2 / keyint=240 / keyint_min=23 / scenecut=40 / intra_refresh=0 / rc=2pass / mbtree=0 / bitrate=8000 / ratetol=1.0 / qcomp=0.60 / qpmin=0 / qpmax=69 / qpstep=4 / cplxblur=20.0 / qblur=0.5 / ip_ratio=1.40 / pb_ratio=1.30 / aq=1:0.80
Язык : English
Default : Нет
Forced : Нет

Аудио #1
Идентификатор : 2
Формат : AC-3
Формат/Информация : Audio Coding 3
Расширение режима : CM (complete main)
Параметр Endianness формата : Big
Идентификатор кодека : A_AC3
Продолжительность : 2 ч. 46 м.
Вид битрейта : Постоянный
Битрейт : 640 Кбит/сек
Каналы : 6 каналов
Расположение каналов : Front: L C R, Side: L R, LFE
Частота : 48,0 КГц
Частота кадров : 31,250 кадров/сек (1536 spf)
Метод сжатия : С потерями
Размер потока : 763 Мбайт (6%)
Заголовок : AVO Котов Вячеслав Олегович (mupoxa)
Язык : Russian
Default : Нет
Forced : Нет

Аудио #2
Идентификатор : 3
Формат : DTS
Формат/Информация : Digital Theater Systems
Режим : 16
Параметр Endianness формата : Big
Идентификатор кодека : A_DTS
Продолжительность : 2 ч. 46 м.
Вид битрейта : Постоянный
Битрейт : 1509 Кбит/сек
Каналы : 6 каналов
Расположение каналов : Front: L C R, Side: L R, LFE
Частота : 48,0 КГц
Частота кадров : 93,750 кадра/сек (512 spf)
Битовая глубина : 24 бит
Метод сжатия : С потерями
Размер потока : 1,76 Гбайт (15%)
Язык : English
Default : Нет
Forced : Нет

Текст #1
Идентификатор : 4
Формат : UTF-8
Идентификатор кодека : S_TEXT/UTF8
Идентификатор кодека/Информация : UTF-8 Plain Text
Язык : English
Default : Нет
Forced : Нет

Текст #2
Идентификатор : 5
Формат : UTF-8
Идентификатор кодека : S_TEXT/UTF8
Идентификатор кодека/Информация : UTF-8 Plain Text
Заголовок : SDH
Язык : English
Default : Нет
Forced : Нет


x

Не пропустите

Acme CAD Converter 2019 8.9.8.1482 (2018) РС | RePack & Portable by elchupacabra

СКАЧАТЬ TORRENT ФАЙЛ Acme CAD Converter 2019 8.9.8.1482 RePack & Portable by elchupacabra Русская/английская зарегистрированная ...