Главная » Country » Геошторм / Geostorm (2017) WEB-DLRip-AVC | D | Open Matte

Геошторм / Geostorm (2017) WEB-DLRip-AVC | D | Open Matte

СКАЧАТЬ TORRENT ФАЙЛ

Информация о фильме
Название: Геошторм
Оригинальное название: Geostorm
Год выпуска: 2017
Жанр: фантастика, боевик, триллер
Режиссер: Дин Девлин, Пол Гуйо

В ролях: Джерард Батлер, Джим Стёрджесс, Эбби Корниш, Александра Мария Лара, Дэниэл Ву, Эухенио Дербес, Амр Вакед, Эдеперо Одуйе, Энди Гарсиа, Эд Харрис

О фильме:
После беспрецедентной серии стихийных бедствий, обрушившихся на нашу планету, лидеры мировых держав объединили усилия, чтобы создать разветвленную сеть орбитальных спутников по контролю над климатом для предотвращения природных катаклизмов. Но что-то пошло не так — система, выстроенная для защиты Земли, теперь угрожает ей. Начинается гонка наперегонки со временем, в которой надо успеть обнаружить реальную угрозу до того, как всемирный Геошторм сотрёт с лица Земли всё живое.

MPAA: PG-13 — Детям до 13 лет просмотр не желателен

Страна: США
Студия: Warner Bros., Electric Entertainment, Jerry Bruckheimer Films, Skydance Media
Продолжительность: 01:49:14
Перевод: Профессиональный (дублированный) Blu-ray CEE

Файл
Качество: WEB-DLRip-AVC | Open Matte | Amazon
Формат: Matroska
Видео: 1024×576 at 23.976 fps, [email protected], ~2513 kbps
Аудио#1: 48 kHz, AC3,3/2 (L,C,R,l,r) + LFE ch, ~448 kbps
Субтитры: Russian (Captions)

M/Ix264 info:
x264 info: frame I:1673 Avg QP:14.00 size: 99081
x264 info: frame P:37298 Avg QP:18.10 size: 27233
x264 info: frame B:118157 Avg QP:20.49 size: 7819
x264 info: consecutive B-frames: 3.5% 4.3% 8.8% 27.3% 15.3% 28.1% 5.5% 4.1% 2.6% 0.3% 0.2%

General
Unique ID : 196051259084543567943878335928054936263 (0x937E195B60E1148A9567BA2685E972C7)
Complete name : G:Видео_1Геошторм_2017_WEB_DLRIP-AVC_O.M_[-=DoMiNo=-].mkv
Format : Matroska
Format version : Version 4 / Version 2
File size : 2.31 GiB
Duration : 1 h 49 min
Overall bit rate : 3 021 kb/s
Movie name : Геошторм
Deion : После беспрецедентной серии стихийных бедствий, обрушившихся на нашу планету, лидеры мировых держав объединили усилия, чтобы создать разветвленную сеть орбитальных спутников по контролю над климатом для предотвращения природных катаклизмов. Но что-то пошло не так — система, выстроенная для защиты Земли, теперь угрожает ей. Начинается гонка наперегонки со временем, в которой надо успеть обнаружить реальную угрозу до того, как всемирный Геошторм сотрет с лица Земли все живое… и всех живых заодно.
Writing application : XviD4PSP 7.0.452 DAILY
Writing library : Lavf57.71.100
ErrorDetectionType : Per level 1
Attachments : poster.jpg
ACTORS : Gerard Butler, Alexandra Maria Lara, Jim Sturgess, Abbie Cornish, Ed Harris, Andy García, Zazie Beetz, Eugenio Derbez, Robert Sheehan, David S. Lee, Talitha Bateman, Daniel Wu, Adepero Oduye, Amr Waked, Richard Schiff, Billy Slaughter, Tom Choi, Mare Winningham, Daniella Garcia-Lorido, Ritchie Montgomery, Judd Lormand, Corey Mendell Parker, Catherine Ashton, Arnold Chun, Randall Newsome, Sean Paul Braud, Anastasiya Rul, Julia Denton, Carlos Antonio, Joe Drago, Douglas M. Griffin, Blake Burt, Derek Roberts
COUNTRY : United States
DATE : 2017-10-13
DIRECTOR : Dean Devlin
ENCODING_INFO : MATROSKA,WEBM > MKV Пользовательский / H264 > X264 CRF 18.0 Пользовательский 2 3 / AC3 > COPY Безопасное
GENRE : боевик, фантастика, триллер
HD_VIDEO : 1
ITUNEXTC : PG13,
Language : und
MEDIA_TYPE : 9
ORIGINAL_TITLE : Geostorm
PRODUCER : Dean Devlin, David Ellison, Dana Goldberg
PUBLISHER : Twisted Media, Stereo D, Skydance Media, RatPac-Dune Entertainment, Electric Entertainment, Warner Bros. Pictures
RATING : 5.70

Video
ID : 1
Format : AVC
Format/Info : Advanced Video Codec
Format profile : High@L4.1
Format settings : CABAC / 10 Ref Frames
Format settings, CABAC : Yes
Format settings, ReFrames : 10 frames
Codec ID : V_MPEG4/ISO/AVC
Duration : 1 h 49 min
Bit rate : 2 513 kb/s
Width : 1 024 pixels
Height : 576 pixels
Display aspect ratio : 16:9
Frame rate mode : Constant
Frame rate : 23.976 (24000/1001) FPS
Color space : YUV
Chroma subsampling : 4:2:0
Bit depth : 8 bits
Scan type : Progressive
Bits/(Pixel*Frame) : 0.178
Stream size : 1.92 GiB (83%)
Title : RIP_BY_-=DoMiNo=-
Writing library : x264 core 155 r2901M 7d0ff22
Encoding settings : cabac=1 / ref=10 / deblock=1:-3:-3 / analyse=0x3:0x133 / me=umh / subme=11 / psy=1 / psy_rd=1.00:0.10 / mixed_ref=1 / me_range=32 / chroma_me=1 / trellis=2 / 8x8dct=1 / cqm=0 / deadzone=21,11 / fast_pskip=0 / chroma_qp_offset=-3 / threads=6 / lookahead_threads=1 / sliced_threads=0 / nr=0 / decimate=1 / interlaced=0 / bluray_compat=0 / constrained_intra=0 / bframes=10 / b_pyramid=2 / b_adapt=2 / b_bias=0 / direct=3 / weightb=1 / open_gop=0 / weightp=2 / keyint=240 / keyint_min=24 / scenecut=40 / intra_refresh=0 / rc_lookahead=50 / rc=crf / mbtree=1 / crf=18.0 / qcomp=0.60 / qpmin=0 / qpmax=69 / qpstep=4 / ip_ratio=1.40 / aq=3:0.90
Language : English
Default : Yes
Forced : No
Color range : Limited
Color primaries : BT.709
Transfer characteristics : BT.709
Matrix coefficients : BT.709

Audio
ID : 2
Format : AC-3
Format/Info : Audio Coding 3
Codec ID : A_AC3
Duration : 1 h 49 min
Bit rate mode : Constant
Bit rate : 448 kb/s
Channel(s) : 6 channels
Channel positions : Front: L C R, Side: L R, LFE
Sampling rate : 48.0 kHz
Frame rate : 31.250 FPS (1536 SPF)
Bit depth : 16 bits
Compression mode : Lossy
Stream size : 350 MiB (15%)
Title : AC3 5.1 448kbps (Дубляж — BluRay)
Language : Russian
Service kind : Complete Main
Default : Yes
Forced : No

Text
ID : 3
Format : UTF-8
Codec ID : S_TEXT/UTF8
Codec ID/Info : UTF-8 Plain Text
Title : Надписи и пр.
Language : Russian
Default : Yes
Forced : No

Menu
00:00:00.000 : :Глава 1
00:09:21.978 : :Глава 2
00:19:14.653 : :Глава 3
00:28:15.944 : :Глава 4
00:37:46.264 : :Глава 5
00:47:15.249 : :Глава 6
00:56:55.829 : :Глава 7
01:06:25.106 : :Глава 8
01:15:56.635 : :Глава 9
01:25:33.545 : :Глава 10
01:35:04.866 : :Глава 11
01:42:36.775 : :Глава 12Скриншоты

x

Не пропустите

American Truck Simulator [v 1.32.3s + 16 DLC] (2016) PC | RePack от qoob

СКАЧАТЬ TORRENT ФАЙЛ Информация: Год выпуска: 2016 Жанр: Simulator Разработчик: SCS Software Издатель: SCS Software ...