Главная » Видео » Зарубежные фильмы » Эскобар / Loving Pablo (2017) WEB-DLRip-AVC от ExKinoRay | iTunes

Эскобар / Loving Pablo (2017) WEB-DLRip-AVC от ExKinoRay | iTunes

СКАЧАТЬ TORRENT ФАЙЛ

Информация о фильме
Название: Эскобар
Оригинальное название: Loving Pablo
Год выпуска: 2017
Жанр: Биография, драма, криминал
Режиссер: Фернандо Леон Де Араноа
В ролях: Хавьер Бардем, Пенелопа Крус, Питер Сарсгаард, Жульет Рестрепо, Оскар Хаенада, Фреди Йэт, Рикардо Ниньо, Педро Кальво, Джованни Альварез, Дэвид Валенсиа

О фильме :
Сюжет картины поведает историю о жизни, стремительном восхождении и становлении империи наркобарона Пабло Эскобара ‒ в прошлом простого паренька из беднейших слоев населения, который в итоге вошёл в число самых богатых людей мира. Эскобар был бессменным лидером колумбийской мафии в течение правления шести американских президентов, которые приходили и уходили с олимпа власти, тогда как Пабло продолжал править невероятно могущественным картелем и сколачивать миллиардное состояние, не гнушаясь совершать самые непростительные преступления. Также в центре внимания окажутся романтические отношения наркобарона с известной журналистской Вирджинией Вальехо.

Страна: Испания, Болгария, США
Студия: Escobar Films, B2Y EOOD
Продолжительность: 01:45:54
Перевод: Дублированный | iTunes

Файл
Формат: MKV
Качество: WEB-DLRip-AVC
Видео: MPEG-4 AVC , 768×320, ~ 907 Кбит/с
Аудио:

AAC -HE, 2 ch, ~ 76 Кбит/с
Субтитры: Нет

MIОбщее
Уникальный идентификатор : 231317644597112257416069608849737328724 (0xAE0628682AE2DEA2B81D1E9042F12854)
Полное имя : D:MOVIESLoving Pablo.2017.ExKinoRay.mkv
Формат : Matroska
Версия формата : Version 4 / Version 2
Размер файла : 746 Мбайт
Продолжительность : 1 ч. 45 м.
Общий поток : 985 Кбит/сек
Дата кодирования : UTC 2018-07-10 19:56:32
Программа кодирования : mkvmerge v15.0.0 ('Duel with the Devil') 64-bit
Библиотека кодирования : libebml v1.3.5 + libmatroska v1.4.5

Видео
Идентификатор : 1
Формат : AVC
Формат/Информация : Advanced Video Codec
Профиль формата : High@L4.1
Параметр CABAC формата : Да
Параметр RefFrames формата : 10 кадров
Идентификатор кодека : V_MPEG4/ISO/AVC
Продолжительность : 1 ч. 45 м.
Битрейт : 907 Кбит/сек
Ширина : 768 пикселей
Высота : 320 пикселей
Соотношение сторон : 2,40:1
Режим частоты кадров : Постоянный
Частота кадров : 23,976 (24000/1001) кадра/сек
Цветовое пространство : YUV
Субдискретизация насыщенности : 4:2:0
Битовая глубина : 8 бит
Тип развёртки : Прогрессивная
Бит/(Пиксели*Кадры) : 0.154
Размер потока : 687 Мбайт (92%)
Библиотека кодирования : x264 core 152 r2851kMod ba24899
Настройки программы : cabac=1 / ref=10 / deblock=1:-3:-3 / analyse=0x3:0x133 / me=umh / subme=11 / psy=1 / fade_compensate=0.00 / psy_rd=1.00:0.14 / mixed_ref=1 / me_range=32 / chroma_me=1 / trellis=2 / 8x8dct=1 / cqm=0 / deadzone=21,11 / fast_pskip=0 / chroma_qp_offset=-3 / threads=6 / lookahead_threads=1 / sliced_threads=0 / nr=0 / decimate=0 / interlaced=0 / bluray_compat=0 / constrained_intra=0 / bframes=10 / b_pyramid=2 / b_adapt=2 / b_bias=0 / direct=3 / weightb=1 / open_gop=0 / weightp=2 / keyint=240 / keyint_min=23 / scenecut=40 / intra_refresh=0 / rc_lookahead=40 / rc=2pass / mbtree=1 / bitrate=907 / ratetol=1.0 / qcomp=0.60 / qpmin=0 / qpmax=69 / qpstep=4 / cplxblur=20.0 / qblur=0.5 / vbv_maxrate=50000 / vbv_bufsize=62500 / nal_hrd=none / filler=0 / ip_ratio=1.40 / aq=3:1.00
Default : Да
Forced : Нет

Аудио
Идентификатор : 2
Формат : AAC
Формат/Информация : Advanced Audio Codec
Профиль формата : HE-AAC / LC
Идентификатор кодека : A_AAC
Продолжительность : 1 ч. 45 м.
Битрейт : 76,0 Кбит/сек
Каналы : 2 канала
Расположение каналов : Front: L R
Частота : 48,0 КГц / 24,0 КГц
Частота кадров : 23,438 кадра/сек (1024 SPF)
Метод сжатия : С потерями
Задержка видео : 31 мс.
Размер потока : 57,6 Мбайт (8%)
Default : Да
Forced : Нет

Меню
00:00:00.000 : en:1
00:02:47.000 : en:2
00:13:05.000 : en:3
00:23:39.000 : en:4
00:34:37.000 : en:5
00:45:46.000 : en:6
00:55:39.000 : en:7
01:04:46.000 : en:8
01:13:29.000 : en:9
01:22:51.000 : en:10
01:32:34.000 : en:11
01:39:48.000 : en:12
Скриншоты

x

Не пропустите

Светлана / Дочь Сталина [01-08 из 08] (2018) HDTVRip-AVC от Files-x

СКАЧАТЬ TORRENT ФАЙЛ Информация о фильме Оригинальное название: Светлана Год выпуска: 2018 Жанр: Биография, драма ...