Главная » House » Дом / The House (2017) BDRemux 1080p | iTunes

Дом / The House (2017) BDRemux 1080p | iTunes

СКАЧАТЬ TORRENT ФАЙЛ

Информация о фильме
Название: Дом
Оригинальное название: The House
Год выхода: 2017
Жанр: Комедия
Режиссер: Эндрю Дж. Коэн
В ролях: Уилл Феррелл, Эми Полер, Джейсон Манцукас, Райан Симпкинс, Ник Кролл, Эллисон Толман, Роб Хюбель, Кристина Оффли, Джесси Эннис, Рори Сковел

О фильме:
Скотт и Кейт души не чают в своей дочери Алекс. Особенно они радовались, когда девушку приняли в университет её мечты. Но городской совет на деньги, обещанные родителям на обучение Алекс, решил построить общественный бассейн. Приняв решение быть хорошими родителями любой ценой, парочка поддается на уговоры соседа-игромана устроить в его доме нелегальное казино с рулеткой и кордебалетом.

Страна: США
Студия: Gary Sanchez Productions, Good Universe, New Line Cinema, Village Roadshow Pictures
Продолжительность: 01:28:09
Перевод: Дублированный | iTunes

Файл
Кодек: x264
Качество: BDRemux 1080p
Видео: MPEG4 AVC, 27,2 Мбит/с, 1920×1080
Звук 1: Русский (AC3, 6 ch, 384 Кбит/с)
Звук 2: Украинский (AC3, 2 ch, 192 Кбит/с)
Звук 3: Английский (DTS, 6 ch, 1509 Кбит/с)
Субтитры: Английские

MIОбщее
Уникальный идентификатор : 136337424081028862457158123790811187199 (0x6691A1FC6ABF5C5529656DA0721AC7FF)
Полное имя : E:iTunesThe.House.2017.BDREMUX 1080p.mkv
Формат : Matroska
Версия формата : Version 4 / Version 2
Размер файла : 18,4 Гбайт
Продолжительность : 1 ч. 28 м.
Режим общего битрейта : Переменный
Общий поток : 29,8 Мбит/сек
Название фильма : The.House.2017.BDREMUX 1080p
Дата кодирования : UTC 2018-06-06 18:17:47
Программа кодирования : mkvmerge v22.0.0 ('At The End Of The World') 64-bit
Библиотека кодирования : libebml v1.3.5 + libmatroska v1.4.8
DURATION : 01:27:33.874000000
NUMBER_OF_FRAMES : 1884
NUMBER_OF_BYTES : 62191
_STATISTICS_WRITING_APP : mkvmerge v22.0.0 ('At The End Of The World') 64-bit
_STATISTICS_WRITING_DATE_UTC : 2018-06-06 18:17:47
_STATISTICS_TAGS : BPS DURATION NUMBER_OF_FRAMES NUMBER_OF_BYTES
Attachment : Yes / Yes / Yes / Yes

Видео
Идентификатор : 1
Формат : AVC
Формат/Информация : Advanced Video Codec
Профиль формата : High@L4.1
Параметр CABAC формата : Да
Параметр ReFrames формата : 4 кадра
Идентификатор кодека : V_MPEG4/ISO/AVC
Продолжительность : 1 ч. 28 м.
Вид битрейта : Переменный
Битрейт : 27,2 Мбит/сек
Максимальный битрейт : 30,0 Мбит/сек
Ширина : 1920 пикселей
Высота : 1080 пикселей
Соотношение сторон : 16:9
Режим частоты кадров : Постоянный
Частота кадров : 23,976 кадра/сек
Цветовое пространство : YUV
Субдискретизация насыщенности : 4:2:0
Битовая глубина : 8 бит
Тип развёртки : Прогрессивная
Бит/(Пиксели*Кадры) : 0.546
Размер потока : 16,7 Гбайт (91%)
Заголовок : The.House.2017.BDREMUX 1080p
Язык : English
Default : Нет
Forced : Нет
DURATION : 01:28:09.660000000
NUMBER_OF_FRAMES : 126825
NUMBER_OF_BYTES : 18342701273
_STATISTICS_WRITING_APP : mkvmerge v22.0.0 ('At The End Of The World') 64-bit
_STATISTICS_WRITING_DATE_UTC : 2018-06-06 18:17:47
_STATISTICS_TAGS : BPS DURATION NUMBER_OF_FRAMES NUMBER_OF_BYTES

Аудио #1
Идентификатор : 2
Формат : AC-3
Формат/Информация : Audio Coding 3
Расширение режима : CM (complete main)
Параметр Endianness формата : Big
Идентификатор кодека : A_AC3
Продолжительность : 1 ч. 28 м.
Вид битрейта : Постоянный
Битрейт : 384 Кбит/сек
Каналы : 6 каналов
Расположение каналов : Front: L C R, Side: L R, LFE
Частота : 48,0 КГц
Битовая глубина : 16 бит
Метод сжатия : С потерями
Размер потока : 242 Мбайт (1%)
Заголовок : Дублированный | iTunes
Язык : Russian
Default : Да
Forced : Да

Аудио #2
Идентификатор : 3
Формат : AC-3
Формат/Информация : Audio Coding 3
Расширение режима : CM (complete main)
Параметр Endianness формата : Big
Идентификатор кодека : A_AC3
Продолжительность : 1 ч. 28 м.
Вид битрейта : Постоянный
Битрейт : 192 Кбит/сек
Каналы : 2 канала
Расположение каналов : Front: L R
Частота : 48,0 КГц
Битовая глубина : 16 бит
Метод сжатия : С потерями
Размер потока : 121 Мбайт (1%)
Заголовок : украинский | iTunes
Язык : Ukrainian
Default : Нет
Forced : Нет
DURATION : 01:28:09.664000000
NUMBER_OF_FRAMES : 495906
NUMBER_OF_BYTES : 997762872
_STATISTICS_WRITING_APP : mkvmerge v22.0.0 ('At The End Of The World') 64-bit
_STATISTICS_WRITING_DATE_UTC : 2018-06-06 18:17:47
_STATISTICS_TAGS : BPS DURATION NUMBER_OF_FRAMES NUMBER_OF_BYTES

Аудио #3
Идентификатор : 4
Формат : DTS
Формат/Информация : Digital Theater Systems
Режим : 16
Параметр Endianness формата : Big
Идентификатор кодека : A_DTS
Продолжительность : 1 ч. 28 м.
Вид битрейта : Постоянный
Битрейт : 1509 Кбит/сек
Каналы : 6 каналов
Расположение каналов : Front: L C R, Side: L R, LFE
Частота : 48,0 КГц
Битовая глубина : 24 бит
Метод сжатия : С потерями
Размер потока : 952 Мбайт (5%)
Заголовок : Original (Eng)
Язык : English
Default : Нет
Forced : Нет

Текст
Идентификатор : 5
Формат : UTF-8
Идентификатор кодека : S_TEXT/UTF8
Идентификатор кодека/Информация : UTF-8 Plain Text
Язык : English
Default : Нет
Forced : Нет

Меню
00:00:00.000 : en:Chapter 01
00:10:59.158 : en:Chapter 02
00:22:00.944 : en:Chapter 03
00:33:55.783 : en:Chapter 04
00:43:26.562 : en:Chapter 05
00:53:02.262 : en:Chapter 06
01:02:37.920 : en:Chapter 07
01:11:05.761 : en:Chapter 08
01:20:32.327 : en:Chapter 09

Скриншоты

x

Не пропустите

Этот глупый свин не понимает мечту девочки-зайки / Seishun Buta Yarou wa Bunny Girl Senpai no Yume wo Minai [01-07 из 12] (2018) WEBRip 1080p | AniFilm

СКАЧАТЬ TORRENT ФАЙЛ Оригинальное название: Seishun Buta Yarou wa Bunny Girl Senpai no Yume wo ...