Главная » Видео » Зарубежные фильмы » До встречи с тобой / Me Before You (2016) WEBRip 1080p | L

До встречи с тобой / Me Before You (2016) WEBRip 1080p | L

СКАЧАТЬ TORRENT ФАЙЛ

До встречи с тобой / Me Before You

Страна: Великобритания

Производство: Metro-Goldwyn-Mayer (MGM), New Line Cinema
Год выпуска: 2016
Жанр: драма
Продолжительность: 01:49:41

Режиссер: Теа Шэррок
Автор сценария: Джоджо Мойес

В ролях: Сэм Клафлин, Эмилия Кларк, Ванесса Кирби, Эйлин Данвуди, Пабло Рэйбоулд, Гэбриэлль Дауни, Саманта Спиро, Брендан Койл

Описание: Лу Кларк знает, сколько шагов от автобусной остановки до ее дома. Она знает, что ей очень нравится работа в кафе и что, скорее всего, она не любит своего бойфренда Патрика. Но Лу не знает, что вот-вот потеряет свою работу и что в ближайшем будущем ей понадобятся все силы, чтобы преодолеть свалившиеся на нее проблемы. Уилл Трейнор знает, что сбивший его мотоциклист отнял у него желание жить. И он точно знает, что надо сделать, чтобы положить конец всему этому. Но он не знает, что Лу скоро ворвется в его мир буйством красок. И они оба не знают, что навсегда изменят жизнь друг друга…

Перевод: Любительский (многоголосый) | СПД
Субтитры: корейские (вшитые)

Качество: WEBRip 1080p
Формат: МКV
Видео кодек: AVC
Аудио кодек: АС3
Видео: 1920×800 (2.40:1), 23.976 fps, MPEG-4 AVC ~4 351 kbps avg
Аудио №1: 48 kHz, AC3 Dolby Digital, 2/0 (L,R) ch, ~384 kbps | RUS
Аудио №2: 48 kHz, AC3 Dolby Digital, 2/0 (L,R) ch, ~384 kbps | ENG

Бюджет: $20 000 000
Дата премьеры (мир): 2 июня 2016
Дата премьеры (РФ): 7 июля 2016, «Каро-Премьер»

ПРИМЕЧАНИЕ: ПРИСУТСТВУЕТ РЕКЛАМА!

Media InfoGeneral
Unique ID : 189804572521622051500805934144798695360 (0x8ECB07EE4FD8E4A9B8668D144C459FC0)
Format : Matroska
Format version : Version 4 / Version 2
Overall bit rate mode : Constant
Overall bit rate : 5 223 Kbps
Movie name : MoreFilms
Encoded date : UTC 2016-07-05 14:11:00
Writing application : mkvmerge v8.8.0 ('Wind at my back') 64bit
Writing library : libebml v1.3.3 + libmatroska v1.4.4
DURATION : 00:00:59.520000000
NUMBER_OF_FRAMES : 1860
NUMBER_OF_BYTES : 2856960
_STATISTICS_WRITING_APP : mkvmerge v8.8.0 ('Wind at my back') 64bit
_STATISTICS_WRITING_DATE_UTC : 2016-07-05 14:11:00
_STATISTICS_TAGS : BPS DURATION NUMBER_OF_FRAMES NUMBER_OF_BYTES

Video
ID : 1
Format : AVC
Format/Info : Advanced Video Codec
Format profile : High@L4.1
Format settings, CABAC : Yes
Format settings, ReFrames : 5 frames
Codec ID : V_MPEG4/ISO/AVC
Bit rate mode : Constant
Bit rate : 4 351 Kbps
Nominal bit rate : 4 800 Kbps
Width : 1 920 pixels
Height : 800 pixels
Display aspect ratio : 2.40:1
Frame rate mode : Constant
Frame rate : 23.976 fps
Standard : Component
Color space : YUV
Chroma subsampling : 4:2:0
Bit depth : 8 bits
Scan type : Progressive
Bits/(Pixel*Frame) : 0.118
Stream size : 30.9 MiB (83%)
Language : English
Default : Yes
Forced : No
Color range : Limited
Color primaries : BT.709
Transfer characteristics : BT.709
Matrix coefficients : BT.709

Audio #1
ID : 2
Format : AC-3
Format/Info : Audio Coding 3
Mode extension : CM (complete main)
Format settings, Endianness : Big
Codec ID : A_AC3
Bit rate mode : Constant
Bit rate : 384 Kbps
Channel(s) : 2 channels
Channel positions : Front: L R
Sampling rate : 48.0 KHz
Compression mode : Lossy
Stream size : 2.73 MiB (7%)
Language : Russian
Default : Yes
Forced : No

Audio #2
ID : 3
Format : AC-3
Format/Info : Audio Coding 3
Mode extension : CM (complete main)
Format settings, Endianness : Big
Codec ID : A_AC3
Bit rate mode : Constant
Bit rate : 384 Kbps
Channel(s) : 2 channels
Channel positions : Front: L R
Sampling rate : 48.0 KHz
Compression mode : Lossy
Stream size : 2.73 MiB (7%)
Language : English
Default : No
Forced : No
Скриншоты

Оставить комментарий

x

Не пропустите

Сказка о хвосте феи / Fairy Tail [03×01-07 из 25] (2018) WEBRip 720p | ColdFilm

СКАЧАТЬ TORRENT ФАЙЛ Информация о фильме Название: Хвост Феи Оригинальное название: Fairy Tail Год выпуска: ...