Главная » Видео » Зарубежные фильмы » День патриота / Patriots Day (2016) BDRip | P

День патриота / Patriots Day (2016) BDRip | P

СКАЧАТЬ TORRENT ФАЙЛ

День патриота / Patriots Day

Страна: США

Производство: CBS Films, Closest to the Hole Productions
Год выпуска: 2016
Жанр: триллер, драма, история
Продолжительность: 02:13:09

Режиссер: Питер Берг
Авторы сценария: Питер Берг, Мэтт Кук, Джошуа Зитумер

В ролях: Марк Уолберг, Дикки Эклунд мл., Майкл Маршан, Джон Гудман, Кристофер О’Ши, Рэйчел Броснахэн, Джейк Пикинг, Лана Кондор

Описание: Взгляд на бостонскую трагедию 2013 года глазами комиссара полиции Эда Дэвиса. Два взрыва на марафонском забеге оглушили мировую общественность, но не Эда и его коллег, которые разворачивают розыск террористов по горячим следам…

Перевод: Профессиональный (многоголосый, закадровый) | СВ Студия
Субтитры: русские, английские | отдельными файлами

Качество: BDRip | исходник Patriots.Day.2016.1080p.Blu-ray.AVC.DTS-HD.MA.7.1-HDChina
Формат: AVI
Видео кодек: XviD
Аудио кодек: АС3
Видео: 720×304 (2.35:1), 23.976 fps, XviD build 67 ~1 442 kbps avg
Аудио №1: 48.0 kHz, AC3 Dolby Digital, 3/2 (L,C,R,l,r) + LFE ch, ~448 kbps | RUS
Аудио №2: 48.0 kHz, AC3 Dolby Digital, 3/2 (L,C,R,l,r) + LFE ch, ~448 kbps | ENG
Формат субтитров: *SRT

Бюджет: $45 000 000
Дата премьеры (мир): 17 ноября 2016

Формат/Информация : Audio Video Interleave
Профиль формата : OpenDML
Размер файла : 2,19 Гбайт
Продолжительность : 2 ч. 13 м.
Общий поток : 2356 Кбит/сек
Программа кодирования : VirtualDubMod 1.5.10.3 | (build 2550/release)
Библиотека кодирования : VirtualDubMod build 2550/release

Видео
Идентификатор : 0
Формат : MPEG-4 Visual
Профиль формата : Advanced Simple@L5
Настройки формата : BVOP1
Параметр BVOP формата : 1
Параметр QPel формата : Нет
Параметр GMC формата : Без точки перехода
Параметр матрицы формата : Default (MPEG)
Идентификатор кодека : XVID
Идентификатор кодека/Подсказка : XviD
Продолжительность : 2 ч. 13 м.
Битрейт : 1442 Кбит/сек
Ширина : 720 пикселей
Высота : 304 пикселя
Соотношение сторон : 2,35:1
Частота кадров : 23,976 (24000/1001) кадра/сек
Цветовое пространство : YUV
Субдискретизация насыщенности : 4:2:0
Битовая глубина : 8 бит
Тип развёртки : Прогрессивная
Метод сжатия : С потерями
Бит/(Пиксели*Кадры) : 0.275
Размер потока : 1,34 Гбайт (61%)
Библиотека кодирования : XviD 67

Аудио #1
Идентификатор : 1
Формат : AC-3
Формат/Информация : Audio Coding 3
Идентификатор кодека : 2000
Продолжительность : 2 ч. 13 м.
Вид битрейта : Постоянный
Битрейт : 448 Кбит/сек
Каналы : 6 каналов
Расположение каналов : Front: L C R, Side: L R, LFE
Частота : 48,0 КГц
Частота кадров : 31,250 кадров/сек (1536 SPF)
Битовая глубина : 16 бит
Метод сжатия : С потерями
Размер потока : 427 Мбайт (19%)
Выравнивание : Разделение по промежуткам
Продолжительность промежутка : 42 мс. (1,00 видеокадр)
Время предзагрузки промежутка : 500 мс.
Заголовок : RUS — MVO — СВ Студия

Аудио #2
Идентификатор : 2
Формат : AC-3
Формат/Информация : Audio Coding 3
Идентификатор кодека : 2000
Продолжительность : 2 ч. 13 м.
Вид битрейта : Постоянный
Битрейт : 448 Кбит/сек
Каналы : 6 каналов
Расположение каналов : Front: L C R, Side: L R, LFE
Частота : 48,0 КГц
Частота кадров : 31,250 кадров/сек (1536 SPF)
Битовая глубина : 16 бит
Метод сжатия : С потерями
Размер потока : 427 Мбайт (19%)
Выравнивание : Разделение по промежуткам
Продолжительность промежутка : 42 мс. (1,00 видеокадр)
Время предзагрузки промежутка : 500 мс.
Заголовок : ENG

Общее
Полное имя : Patriots.Day.2016.BDRip.2100-ylnian.RUS.srt
Формат : SubRip
Размер файла : 170 Кбайт
Текст
Формат : SubRip
Метод сжатия : Без потерь

Общее
Полное имя : Patriots.Day.2016.BDRip.2100-ylnian_ENG.srt
Формат : SubRip
Размер файла : 144 Кбайт
Текст
Формат : SubRip
Метод сжатия : Без потерьСкриншоты

x

Не пропустите

Авторы Star Wars Jedi: Fallen Order рассказали, почему выбрали Unreal Engine 4

Star Wars Jedi: Fallen Order очень необычная игра в портфолио ЕА, даже по части используемых ...