Главная » Dance » Дела сердечные / Ae Dil Hai Mushkil (2016) BDRip 720p от KORSAR | P

Дела сердечные / Ae Dil Hai Mushkil (2016) BDRip 720p от KORSAR | P

СКАЧАТЬ TORRENT ФАЙЛ

Дела сердечные

Ae Dil Hai Mushkil

Страна: Индия
Жанр: мюзикл, драма, мелодрама, музыка
Год выпуска: 2016
Продолжительность: 02:35:40
Перевод: Профессиональный (многоголосый, закадровый)
Субтитры: русские ( на песни ), русские.

Режиссер: Каран Джохар / Karan Johar

В ролях: Айшвария Рай Баччан, Ранбир Капур, Анушка Шарма, Фавад Кхан (Ali), Лиза Хейдон, Имран Аббас (Dr. Faisal), Pooja Mehta (Bollywood Dance Class Teacher), Cru Fox (Ayan's Main Bandmembers — Lead Guitarist), Jamil Ahmed (Drummer), Phyl Cashman (Bass Guitarist), Тимея Газдаг (Keyboards), Yohan Contractor (Video Recorder)

Описание: Когда чувствительный Аян встречает безбашенную Ализе, его жизнь переворачивается с ног на голову. Оба даже не представляют, что их ждет впереди. История о любви и дружбе, о трудном выборе, о человечности и о том, как же порой бывает нелегко нашему сердцу…

Качество: BDRip 720p
Контейнер: MKV

Видео: MPEG-4 AVC, 1280×538 (2.40:1), 6000 kbps, 24 fps, 0,363 bpp
Аудио №1: русский / AC3 / 2.0 / 48 kHz / 192 kbps / MVO ( FAN studio и Selena релиз-группа )
Аудио №2: русский / AC3 / 2.0 / 48 kHz / 192 kbps / MVO ( Honey & Haseena )
Аудио №3: индийский / AC3 / 5.1 / 48 kHz / 640 kbps
Навигация по главам: есть

Media Info

Формат : Matroska
Версия формата : Version 2
Размер файла : 7,64 Гбайт
Продолжительность : 2 ч. 35 м.
Общий поток : 7022 Кбит/сек
Название фильма : = Дела сердечные / Ae Dil Hai Mushkil (2016) BDRip 720p — KORSAR =
Дата кодирования : UTC 2018-08-30 15:15:08
Программа кодирования : mkvmerge v5.8.0 ('No Sleep / Pillow') built on Sep 2 2012 15:37:04
Библиотека кодирования : libebml v1.2.3 + libmatroska v1.3.0
Attachment : Yes

Видео
Идентификатор : 1
Формат : AVC
Формат/Информация : Advanced Video Codec
Профиль формата : High@L4.1
Параметр CABAC формата : Да
Параметр ReFrames формата : 12 кадров
Идентификатор кодека : V_MPEG4/ISO/AVC
Продолжительность : 2 ч. 35 м.
Битрейт : 6000 Кбит/сек
Ширина : 1280 пикселей
Высота : 538 пикселей
Соотношение сторон : 2,40:1
Режим частоты кадров : Постоянный
Частота кадров : 24,000 кадра/сек
Цветовое пространство : YUV
Субдискретизация насыщенности : 4:2:0
Битовая глубина : 8 бит
Тип развёртки : Прогрессивная
Бит/(Пиксели*Кадры) : 0.363
Размер потока : 6,37 Гбайт (83%)
Заголовок : Дела сердечные / Ae Dil Hai Mushkil (2016) BDRip 720p — KORSAR
Библиотека кодирования : x264 core 148 r2744kMod b97ae06
Настройки программы : cabac=1 / ref=12 / deblock=1:-3:-3 / analyse=0x3:0x113 / me=umh / subme=11 / psy=1 / fade_compensate=0.00 / psy_rd=1.02:0.08 / mixed_ref=1 / me_range=48 / chroma_me=1 / trellis=2 / 8x8dct=1 / cqm=0 / deadzone=21,11 / fast_pskip=0 / chroma_qp_offset=-3 / threads=12 / lookahead_threads=3 / sliced_threads=0 / nr=0 / decimate=0 / interlaced=0 / bluray_compat=0 / constrained_intra=0 / bframes=12 / b_pyramid=2 / b_adapt=2 / b_bias=0 / direct=3 / weightb=1 / open_gop=0 / weightp=2 / keyint=240 / keyint_min=24 / scenecut=40 / intra_refresh=0 / rc_lookahead=60 / rc=2pass / mbtree=0 / bitrate=6000 / ratetol=1.0 / qcomp=0.66 / qpmin=0 / qpmax=39 / qpstep=4 / cplxblur=20.0 / qblur=0.5 / vbv_maxrate=50000 / vbv_bufsize=62500 / nal_hrd=none / filler=0 / ip_ratio=1.40 / pb_ratio=1.30 / aq=3:0.90
Язык : Hindi
Default : Да
Forced : Нет
Основные цвета : BT.709
Характеристики трансфера : BT.709
Коэффициенты матрицы : BT.709

Аудио #1
Идентификатор : 2
Формат : AC-3
Формат/Информация : Audio Coding 3
Расширение режима : CM (complete main)
Параметр Endianness формата : Big
Идентификатор кодека : A_AC3
Продолжительность : 2 ч. 35 м.
Вид битрейта : Постоянный
Битрейт : 192 Кбит/сек
Каналы : 2 канала
Расположение каналов : Front: L R
Частота : 48,0 КГц
Битовая глубина : 16 бит
Метод сжатия : С потерями
Размер потока : 214 Мбайт (3%)
Заголовок : MVO ( FAN studio и Selena релиз-группа )
Язык : Russian
Default : Да
Forced : Нет

Аудио #2
Идентификатор : 3
Формат : AC-3
Формат/Информация : Audio Coding 3
Расширение режима : CM (complete main)
Параметр Endianness формата : Big
Идентификатор кодека : A_AC3
Продолжительность : 2 ч. 35 м.
Вид битрейта : Постоянный
Битрейт : 192 Кбит/сек
Каналы : 2 канала
Расположение каналов : Front: L R
Частота : 48,0 КГц
Битовая глубина : 16 бит
Метод сжатия : С потерями
Размер потока : 214 Мбайт (3%)
Заголовок : MVO ( Honey & Haseena )
Язык : Russian
Default : Нет
Forced : Нет

Аудио #3
Идентификатор : 4
Формат : AC-3
Формат/Информация : Audio Coding 3
Расширение режима : CM (complete main)
Параметр Endianness формата : Big
Идентификатор кодека : A_AC3
Продолжительность : 2 ч. 35 м.
Вид битрейта : Постоянный
Битрейт : 640 Кбит/сек
Каналы : 6 каналов
Расположение каналов : Front: L C R, Side: L R, LFE
Частота : 48,0 КГц
Битовая глубина : 16 бит
Метод сжатия : С потерями
Размер потока : 713 Мбайт (9%)
Язык : Hindi
Default : Нет
Forced : Нет

Текст #1
Идентификатор : 5
Формат : UTF-8
Идентификатор кодека : S_TEXT/UTF8
Идентификатор кодека/Информация : UTF-8 Plain Text
Заголовок : Forced
Язык : Russian
Default : Да
Forced : Нет

Текст #2
Идентификатор : 6
Формат : UTF-8
Идентификатор кодека : S_TEXT/UTF8
Идентификатор кодека/Информация : UTF-8 Plain Text
Язык : Russian
Default : Нет
Forced : Нет

Меню
00:00:00.000 : en:00:00:00.000
00:14:39.292 : en:00:14:39.292
00:21:19.292 : en:00:21:19.292
00:32:36.792 : en:00:32:36.792
00:36:01.208 : en:00:36:01.208
00:43:16.333 : en:00:43:16.333
00:55:16.708 : en:00:55:16.708
01:04:52.833 : en:01:04:52.833
01:09:06.292 : en:01:09:06.292
01:11:03.167 : en:01:11:03.167
01:21:16.958 : en:01:21:16.958
01:27:51.458 : en:01:27:51.458
01:32:57.958 : en:01:32:57.958
01:40:08.500 : en:01:40:08.500
01:54:06.292 : en:01:54:06.292
01:59:06.583 : en:01:59:06.583
02:08:10.750 : en:02:08:10.750
02:18:32.667 : en:02:18:32.667
02:25:44.083 : en:02:25:44.083
02:26:47.167 : en:02:26:47.167

Скриншоты


Переводы
FAN studio и Selena релиз-группа:
Перевод на русский язык — Эрмен, редакция — Selena.
Роли озвучивали: Nick, Function Vol, Эрмен и Selena
—————————————————————————
Honey&Haseena:
Озвучка: Денис Строев, Давид Петросян и Маргарита Сахно
Перевод и редакция: Honey&Haseena

x

Не пропустите

Озарк / Ozark [02х01-05 из 10] (2018) WEBRip | NewStudio

СКАЧАТЬ TORRENT ФАЙЛ Информация о фильме Название: Озарк Оригинальное название: Ozark Год выпуска: 2018 Жанр: ...