Главная » Видео » Зарубежные фильмы » Дэдпул 2 / Deadpool 2 (2018) WEB-DL 720p | D | TS

Дэдпул 2 / Deadpool 2 (2018) WEB-DL 720p | D | TS

СКАЧАТЬ TORRENT ФАЙЛ

Информация о фильме
Название: Дэдпул 2
Оригинальное название: Deadpool 2
Год выхода: 2018
Жанр: Фантастика, боевик, комедия, приключения
Режиссер: Дэвид Литч
В ролях: Райан Рейнольдс (Wade Wilson / Deadpool / Voice of Juggernaut), Джош Бролин (Cable), Морена Баккарин (Vanessa), Джулиан Деннисон (Firefist), Зази Битц (Domino), ТиДжей Миллер (Weasel), Лесли Аггамс (Blind Al), Каран Сони (Dopinder), Брианна Хилдебранд (Negasonic Teenage Warhead), Джек Кеси (Black Tom), Эдди Марсан (Headmaster), Сиори Куцуна (Yukio)

О фильме: Единственный и неповторимый болтливый наемник — вернулся! Ещё более масштабный, ещё более разрушительный и даже ещё более голозадый, чем прежде! Когда в его жизнь врывается суперсолдат с убийственной миссией, Дэдпул вынужден задуматься о дружбе, семье и о том, что на самом деле значит быть героем, попутно надирая 50 оттенков задниц. Потому что иногда чтобы делать хорошие вещи, нужно использовать грязные приёмчики.

Страна: США
Студия: Donners' Company, Kinberg Genre, Marvel Entertainmen
Продолжительность: 01:59:21
Перевод: Дублированный (TS)

Файл
Качество: WEB-DL 720p (AMAZON Version)
Видео: MPEG-4 AVC, 1280×720, 6000 Кбит/c
Звук: AC3, 2.0, 192 Кбит/c (Russian), E-AC3, 5.1, 256 Кбит/с (English)
Субтитры: Русские (полные), английские (SDH)

Семпл

БЕЗ РЕКЛАМЫ.

Скриншоты

Media InfoGeneral
Unique ID : 231904109497984165596586528900487158532 (0xAE771B5BE38AF2015CC616D61DF99B04)
Complete name : D:Video111Deadpool.2.2018.AMZN.WEB-DL.720p.mkv
Format : Matroska
Format version : Version 4 / Version 2
File size : 5.31 GiB
Duration : 1 h 59 min
Overall bit rate : 6 370 kb/s
Encoded date : UTC 2018-08-07 18:02:18
Writing application : mkvmerge v23.0.0 ('The Bride Said No') 64-bit
Writing library : libebml v1.3.6 + libmatroska v1.4.9

Video
ID : 1
Format : AVC
Format/Info : Advanced Video Codec
Format profile : High@L3.1
Format settings : CABAC / 4 Ref Frames
Format settings, CABAC : Yes
Format settings, ReFrames : 4 frames
Codec ID : V_MPEG4/ISO/AVC
Duration : 1 h 59 min
Bit rate mode : Constant
Bit rate : 6 000 kb/s
Width : 1 280 pixels
Height : 720 pixels
Display aspect ratio : 16:9
Frame rate mode : Constant
Frame rate : 23.976 (24000/1001) FPS
Color space : YUV
Chroma subsampling : 4:2:0
Bit depth : 8 bits
Scan type : Progressive
Bits/(Pixel*Frame) : 0.272
Stream size : 4.94 GiB (93%)
Language : English
Default : Yes
Forced : No
Color range : Limited
Color primaries : BT.709
Transfer characteristics : BT.709
Matrix coefficients : BT.709

Audio #1
ID : 2
Format : AC-3
Format/Info : Audio Coding 3
Commercial name : Dolby Digital
Codec ID : A_AC3
Duration : 1 h 58 min
Bit rate mode : Constant
Bit rate : 192 kb/s
Channel(s) : 2 channels
Channel positions : Front: L R
Sampling rate : 48.0 kHz
Frame rate : 31.250 FPS (1536 SPF)
Bit depth : 16 bits
Compression mode : Lossy
Stream size : 163 MiB (3%)
Language : Russian
Service kind : Complete Main
Default : Yes
Forced : Yes

Audio #2
ID : 3
Format : E-AC-3
Format/Info : Enhanced AC-3
Commercial name : Dolby Digital Plus
Codec ID : A_EAC3
Duration : 1 h 59 min
Bit rate mode : Constant
Bit rate : 256 kb/s
Channel(s) : 6 channels
Channel positions : Front: L C R, Side: L R, LFE
Sampling rate : 48.0 kHz
Frame rate : 31.250 FPS (1536 SPF)
Compression mode : Lossy
Stream size : 219 MiB (4%)
Language : English
Service kind : Complete Main
Default : No
Forced : No

Text #1
ID : 4
Format : UTF-8
Codec ID : S_TEXT/UTF8
Codec ID/Info : UTF-8 Plain Text
Duration : 1 h 51 min
Bit rate : 109 b/s
Count of elements : 1933
Stream size : 89.4 KiB (0%)
Language : Russian
Default : No
Forced : No

Text #2
ID : 5
Format : UTF-8
Codec ID : S_TEXT/UTF8
Codec ID/Info : UTF-8 Plain Text
Duration : 1 h 58 min
Bit rate : 68 b/s
Count of elements : 2153
Stream size : 59.3 KiB (0%)
Title : SDH
Language : English
Default : No
Forced : No

Menu
00:00:00.000 : en:Scene 1
00:02:35.000 : en:Scene 2
00:05:57.000 : en:Scene 3
00:08:15.000 : en:Scene 4
00:11:34.000 : en:Scene 5
00:14:56.000 : en:Scene 6
00:16:23.000 : en:Scene 7
00:20:28.000 : en:Scene 8
00:22:04.000 : en:Scene 9
00:26:38.000 : en:Scene 10
00:31:43.000 : en:Scene 11
00:35:20.000 : en:Scene 12
00:39:03.000 : en:Scene 13
00:41:53.000 : en:Scene 14
00:46:17.000 : en:Scene 15
00:50:33.000 : en:Scene 16
00:54:01.000 : en:Scene 17
00:56:31.000 : en:Scene 18
00:58:29.000 : en:Scene 19
01:00:29.000 : en:Scene 20
01:03:58.000 : en:Scene 21
01:07:56.000 : en:Scene 22
01:09:38.000 : en:Scene 23
01:13:31.000 : en:Scene 24
01:17:48.000 : en:Scene 25
01:20:59.000 : en:Scene 26
01:24:09.000 : en:Scene 27
01:26:26.000 : en:Scene 28
01:29:32.000 : en:Scene 29
01:31:44.000 : en:Scene 30
01:33:29.000 : en:Scene 31
01:35:26.000 : en:Scene 32
01:38:58.000 : en:Scene 33
01:42:19.000 : en:Scene 34
01:45:21.000 : en:Scene 35
01:49:34.000 : en:Scene 36

x

Не пропустите

Великий уравнитель 2 / The Equalizer 2 (2018) BDRip от MegaPeer | Лицензия

СКАЧАТЬ TORRENT ФАЙЛ Информация о фильме Название: Великий уравнитель 2 Оригинальное название: The Equalizer 2 ...