Главная » Видео » Зарубежные фильмы » Дэдпул 2 / Deadpool 2 (2018) BDRip 720p | D | TS

Дэдпул 2 / Deadpool 2 (2018) BDRip 720p | D | TS

СКАЧАТЬ TORRENT ФАЙЛ

Информация о фильме
Название: Дэдпул 2
Оригинальное название: Deadpool 2
Год выхода: 2018
Жанр: Фантастика, боевик, комедия, приключения
Режиссер: Дэвид Литч
В ролях: Райан Рейнольдс (Wade Wilson / Deadpool / Voice of Juggernaut), Джош Бролин (Cable), Морена Баккарин (Vanessa), Джулиан Деннисон (Firefist), Зази Битц (Domino), ТиДжей Миллер (Weasel), Лесли Аггамс (Blind Al), Каран Сони (Dopinder), Брианна Хилдебранд (Negasonic Teenage Warhead), Джек Кеси (Black Tom), Эдди Марсан (Headmaster), Сиори Куцуна (Yukio)

О фильме: Единственный и неповторимый болтливый наемник — вернулся! Ещё более масштабный, ещё более разрушительный и даже ещё более голозадый, чем прежде! Когда в его жизнь врывается суперсолдат с убийственной миссией, Дэдпул вынужден задуматься о дружбе, семье и о том, что на самом деле значит быть героем, попутно надирая 50 оттенков задниц. Потому что иногда чтобы делать хорошие вещи, нужно использовать грязные приёмчики.

Страна: США
Студия: Donners' Company, Kinberg Genre, Marvel Entertainmen
Продолжительность: 01:59:20
Перевод: Дублированный (TS)

Файл
Качество: BDRip 720p
Видео: MPEG-4 AVC, 1280×536, 6200 Кбит/c
Звук: AC3, 2.0, 192 Кбит/c (Russian), AC3, 2.0, 192 Кбит/с (Ukrainian (Line)), DTS, 5.1, 1510 Кбит/с (English)
Субтитры: Русские (полные), английские (SDH)

Семпл

БЕЗ РЕКЛАМЫ.

Скриншоты

Media InfoGeneral
Unique ID : 319842242716469597156906055617965839256 (0xF09F6011E02F79C58F922DA838A9D398)
Complete name : D:Deadpool.2.2018.rus.ukr.BDRip.720p.mkv
Format : Matroska
Format version : Version 4 / Version 2
File size : 6.74 GiB
Duration : 1 h 59 min
Overall bit rate : 8 082 kb/s
Encoded date : UTC 2018-08-08 11:20:47
Writing application : mkvmerge v23.0.0 ('The Bride Said No') 64-bit
Writing library : libebml v1.3.6 + libmatroska v1.4.9

Video
ID : 1
Format : AVC
Format/Info : Advanced Video Codec
Format profile : High@L4.1
Format settings : CABAC / 12 Ref Frames
Format settings, CABAC : Yes
Format settings, ReFrames : 12 frames
Codec ID : V_MPEG4/ISO/AVC
Duration : 1 h 59 min
Bit rate : 6 200 kb/s
Width : 1 280 pixels
Height : 536 pixels
Display aspect ratio : 2.40:1
Frame rate mode : Constant
Frame rate : 23.976 (24000/1001) FPS
Color space : YUV
Chroma subsampling : 4:2:0
Bit depth : 8 bits
Scan type : Progressive
Bits/(Pixel*Frame) : 0.377
Stream size : 5.16 GiB (77%)
Writing library : x264 core 148 r2665kMod a01e339
Encoding settings : cabac=1 / ref=12 / deblock=1:-3:-3 / analyse=0x3:0x133 / me=umh / subme=11 / psy=1 / fade_compensate=0.00 / psy_rd=1.05:0.00 / mixed_ref=1 / me_range=32 / chroma_me=1 / trellis=2 / 8x8dct=1 / cqm=0 / deadzone=21,11 / fast_pskip=0 / chroma_qp_offset=-2 / threads=17 / lookahead_threads=2 / sliced_threads=0 / nr=0 / decimate=0 / interlaced=0 / bluray_compat=0 / constrained_intra=0 / fgo=0 / bframes=8 / b_pyramid=2 / b_adapt=2 / b_bias=0 / direct=3 / weightb=1 / open_gop=0 / weightp=2 / keyint=240 / keyint_min=24 / scenecut=40 / intra_refresh=0 / rc=2pass / mbtree=0 / bitrate=6200 / ratetol=1.0 / qcomp=0.70 / qpmin=0 / qpmax=69 / qpstep=4 / cplxblur=20.0 / qblur=0.5 / ip_ratio=1.20 / pb_ratio=1.20 / aq=3:0.85
Language : English
Default : Yes
Forced : No

Audio #1
ID : 2
Format : AC-3
Format/Info : Audio Coding 3
Commercial name : Dolby Digital
Codec ID : A_AC3
Duration : 1 h 58 min
Bit rate mode : Constant
Bit rate : 192 kb/s
Channel(s) : 2 channels
Channel positions : Front: L R
Sampling rate : 48.0 kHz
Frame rate : 31.250 FPS (1536 SPF)
Bit depth : 16 bits
Compression mode : Lossy
Stream size : 163 MiB (2%)
Language : Russian
Service kind : Complete Main
Default : Yes
Forced : Yes

Audio #2
ID : 3
Format : AC-3
Format/Info : Audio Coding 3
Commercial name : Dolby Digital
Codec ID : A_AC3
Duration : 1 h 58 min
Bit rate mode : Constant
Bit rate : 192 kb/s
Channel(s) : 2 channels
Channel positions : Front: L R
Sampling rate : 48.0 kHz
Frame rate : 31.250 FPS (1536 SPF)
Bit depth : 16 bits
Compression mode : Lossy
Stream size : 163 MiB (2%)
Language : Ukrainian
Service kind : Complete Main
Default : No
Forced : No

Audio #3
ID : 4
Format : DTS
Format/Info : Digital Theater Systems
Codec ID : A_DTS
Duration : 1 h 59 min
Bit rate mode : Constant
Bit rate : 1 509 kb/s
Channel(s) : 6 channels
Channel positions : Front: L C R, Side: L R, LFE
Sampling rate : 48.0 kHz
Frame rate : 93.750 FPS (512 SPF)
Bit depth : 24 bits
Compression mode : Lossy
Stream size : 1.26 GiB (19%)
Language : English
Default : No
Forced : No

Text #1
ID : 5
Format : UTF-8
Codec ID : S_TEXT/UTF8
Codec ID/Info : UTF-8 Plain Text
Duration : 1 h 51 min
Bit rate : 109 b/s
Count of elements : 1933
Stream size : 89.4 KiB (0%)
Language : Russian
Default : No
Forced : No

Text #2
ID : 6
Format : UTF-8
Codec ID : S_TEXT/UTF8
Codec ID/Info : UTF-8 Plain Text
Duration : 1 h 58 min
Bit rate : 68 b/s
Count of elements : 2153
Stream size : 59.3 KiB (0%)
Language : English
Default : No
Forced : No

Menu
00:00:00.000 : en:00:00:00.000
00:02:31.693 : en:00:02:31.693
00:05:53.436 : en:00:05:53.436
00:08:11.658 : en:00:08:11.658
00:11:30.565 : en:00:11:30.565
00:14:52.100 : en:00:14:52.100
00:16:20.980 : en:00:16:20.980
00:20:24.515 : en:00:20:24.515
00:22:00.528 : en:00:22:00.528
00:26:34.468 : en:00:26:34.468
00:31:40.774 : en:00:31:40.774
00:35:16.948 : en:00:35:16.948
00:39:00.380 : en:00:39:00.380
00:41:49.924 : en:00:41:49.924
00:46:16.232 : en:00:46:16.232
00:50:30.027 : en:00:50:30.027
00:53:56.066 : en:00:53:56.066
00:56:27.426 : en:00:56:27.426
00:58:25.711 : en:00:58:25.711
01:00:26.039 : en:01:00:26.039
01:03:59.294 : en:01:03:59.294
01:07:57.490 : en:01:07:57.490
01:09:38.466 : en:01:09:38.466
01:13:27.820 : en:01:13:27.820
01:17:49.123 : en:01:17:49.123
01:20:56.018 : en:01:20:56.018
01:24:05.916 : en:01:24:05.916
01:26:21.343 : en:01:26:21.343
01:29:28.905 : en:01:29:28.905
01:31:41.287 : en:01:31:41.287
01:33:26.351 : en:01:33:26.351
01:35:29.307 : en:01:35:29.307
01:38:54.554 : en:01:38:54.554
01:42:16.172 : en:01:42:16.172
01:45:19.021 : en:01:45:19.021
01:49:00.576 : en:

x

Не пропустите

Уильям Гибсон — Периферийные устройства (2018) MP3

СКАЧАТЬ TORRENT ФАЙЛ Название: Периферийные устройства Автор: Уильям Гибсон Год выпуска: 2018 Жанр: Фантастика, аудиокнига ...