Главная » Видео » Зарубежные фильмы » Цирк уродов / Freak Show (2017) HDRip 720p | GreenРай Studio

Цирк уродов / Freak Show (2017) HDRip 720p | GreenРай Studio

СКАЧАТЬ TORRENT ФАЙЛ

Информация о фильме
Год выхода: 2017
Наименование: Цирк уродов
Оригинальное наименование: Freak Show
Страна: США
Жанр: драма, комедия
Режиссер постановщик: Труди Стайлер
В главных ролях: Эбигейл Бреслин, Анна-София Робб, Алекс Лоутер, Лаверн Кокс, Бетт Мидлер, Йен Нельсон, Уилла Фицджералд, Мики Самнер, Селия Уэстон, Майкл Парк

О фильме: Ультраконсервативная и насквозь элитарная школа для богачей встает на уши с появлением нового студента — эпатажного и свободолюбивого подростка Билли Блума. Он потрясает «приличное общество», одеваясь и красясь, как девушка. В ответ на жестокую массовую травлю Билли решает участвовать в конкурсе «Королева школы».

Файл
Качество: HDRip 720p
Видео данные: MKV, 1280×536 (2.40:1), 23.976 fps, 5362 Кбит/с
Аудио данные: AC3, 2 ch, 640 Кбит/с
Перевод: Любительский многоголосый (GreenРай Studio)
Продолжительность: 01:31:50

МедиаинфоGeneral
Unique ID : 232231052796203003348560850317555346313 (0xAEB612E877C5B5F382AACDD8A0DD2B89)
Complete name : E:ГРИНРАЙFreak Show.2017.P.BDRip.720p.mkv
Format : Matroska
Format version : Version 4 / Version 2
File size : 3.93 GiB
Duration : 1 h 31 min
Overall bit rate : 6 124 kb/s
Encoded date : UTC 2018-07-09 12:41:08
Writing application : mkvmerge v6.5.0 ('Isn't she lovely') built on Oct 20 2013 12:50:05
Writing library : libebml v1.3.0 + libmatroska v1.4.1

Video
ID : 1
Format : AVC
Format/Info : Advanced Video Codec
Format profile : High@L3.1
Format settings : CABAC / 4 Ref Frames
Format settings, CABAC : Yes
Format settings, RefFrames : 4 frames
Codec ID : V_MPEG4/ISO/AVC
Duration : 1 h 31 min
Bit rate : 5 362 kb/s
Width : 1 280 pixels
Height : 536 pixels
Display aspect ratio : 2.40:1
Frame rate mode : Constant
Frame rate : 23.976 FPS
Color space : YUV
Chroma subsampling : 4:2:0
Bit depth : 8 bits
Scan type : Progressive
Bits/(Pixel*Frame) : 0.326
Stream size : 3.44 GiB (88%)
Writing library : x264 core 146 r2538 121396c
Encoding settings : cabac=1 / ref=1 / deblock=1:0:0 / analyse=0x3:0x113 / me=hex / subme=2 / psy=1 / psy_rd=1.00:0.00 / mixed_ref=0 / me_range=16 / chroma_me=1 / trellis=0 / 8x8dct=1 / cqm=0 / deadzone=21,11 / fast_pskip=1 / chroma_qp_offset=0 / threads=9 / lookahead_threads=3 / sliced_threads=0 / nr=0 / decimate=1 / interlaced=0 / bluray_compat=0 / constrained_intra=0 / bframes=3 / b_pyramid=2 / b_adapt=1 / b_bias=0 / direct=1 / weightb=1 / open_gop=0 / weightp=1 / keyint=250 / keyint_min=23 / scenecut=40 / intra_refresh=0 / rc_lookahead=10 / rc=crf / mbtree=1 / crf=14.0 / qcomp=0.60 / qpmin=0 / qpmax=69 / qpstep=4 / ip_ratio=1.40 / aq=1:1.00
Language : English
Default : Yes
Forced : No

Audio
ID : 2
Format : AC-3
Format/Info : Audio Coding 3
Codec ID : A_AC3
Duration : 1 h 31 min
Bit rate mode : Constant
Bit rate : 640 kb/s
Channel(s) : 2 channels
Channel positions : Front: L R
Sampling rate : 48.0 kHz
Frame rate : 31.250 FPS (1536 SPF)
Bit depth : 16 bits
Compression mode : Lossy
Stream size : 420 MiB (10%)
Service kind : Complete Main
Default : Yes
Forced : No

Внимание, имеется видео и аудио реклама от спонсора показа

Скриншоты

x

Не пропустите

Offworld Trading Company [v 1.21.21834 + 8 DLC] (2016) PC | Лицензия

СКАЧАТЬ TORRENT ФАЙЛ Год выпуска: 2016 Жанр: Разработчик: Mohawk Games Издательство: Stardock Entertainment Версия игры: ...