Главная » Видео » Зарубежные фильмы » Быстрая прогулка / Kapgang (2014) BDRip 720p | L1

Быстрая прогулка / Kapgang (2014) BDRip 720p | L1

СКАЧАТЬ TORRENT ФАЙЛ

Информация о фильме
Название: Быстрая прогулка
Оригинальное название: Kapgang
Год выхода: 2014
Жанр: драма
Режиссер: Нильс Арден Оплев
В ролях: Виллас Бёэ, Андерс В. Бертельсен, Сидсе Бабетт Кнудсен, Фредерик Винтер Расмуссен, Kraka Donslund Nielsen, Jens Malthe Næsby, Magnus Blach, Бодил Лассен, Курт Равн, Анетт Стёвельбек

Описание: В фильме отображены события двух недель 1976 года. В провинциальном датском городке живёт Мартин Эстергорд, ему четырнадцать лет, он одарённый спортсмен и вскоре его ждёт конфирмация — впереди взрослая жизнь. Однако, повзрослеть ему пришлось раньше: внезапно умирает его мать. Брат и отец убиты горем и де-факто старшим в семье становится Мартин, на его плечи ложится забота о доме, об отце и брате. У Мартина лишь два близких друга — Ким и Кристина, у которых он ищет утешение и поддержку. Когда дружба перерастает в любовь, Мартину предстоит сделать непростой выбор.

Страна: Дания
Продолжительность: 01:47:36
Перевод: Любительский (одноголосый закадровый)
Субтитры: английские, датские, русские (aimenf)
Оригинальная аудиодорожка: датский

Файл
Качество: BDRip 720p (рип от EbP)
Видео: AVC (x264), 1280×536 (2.40:1) at 24,000 fps, 5178 Кbps, 0.314 bpp
Аудио 1: AC3; 192 Kbps; CBR; 2 ch; 48 khz | VO |
Аудио 2: AC3; 640 Kbps; CBR; 6 ch; 48 khz | Датский |

Скриншоты


MediaInfoGeneral
Unique ID : 235595653405339781342090508398678295933 (0xB13E12869563C2C483857F0D0120C57D)
Complete name : Спортивная ходьба.2014.L1.720p.BluRay.x264-EbP.mkv
Format : Matroska
Format version : Version 4 / Version 2
File size : 4.52 GiB
Duration : 1h 47mn
Overall bit rate : 6 009 Kbps
Movie name : Speed Walking [2014] [720p] VO
Encoded date : UTC 2016-03-09 14:05:16
Writing application : mkvmerge v7.8.0 ('River Man') 32bit built on Mar 27 2015 16:18:02
Writing library : libebml v1.3.1 + libmatroska v1.4.2

Video
ID : 1
Format : AVC
Format/Info : Advanced Video Codec
Format profile : High@L4.1
Format settings, CABAC : Yes
Format settings, ReFrames : 12 frames
Codec ID : V_MPEG4/ISO/AVC
Duration : 1h 47mn
Bit rate : 5 178 Kbps
Width : 1 280 pixels
Height : 536 pixels
Display aspect ratio : 2.40:1
Frame rate mode : Constant
Frame rate : 24.000 fps
Color space : YUV
Chroma subsampling : 4:2:0
Bit depth : 8 bits
Scan type : Progressive
Bits/(Pixel*Frame) : 0.314
Stream size : 3.80 GiB (84%)
Title : profile.php?mode=viewprofile&u=22488948
Writing library : x264 core 148 r2665 a01e339
Encoding settings : cabac=1 / ref=12 / deblock=1:-3:-3 / analyse=0x3:0x133 / me=umh / subme=10 / psy=1 / psy_rd=0.95:0.00 / mixed_ref=1 / me_range=32 / chroma_me=1 / trellis=2 / 8x8dct=1 / cqm=0 / deadzone=21,11 / fast_pskip=0 / chroma_qp_offset=-2 / threads=17 / lookahead_threads=2 / sliced_threads=0 / nr=0 / decimate=0 / interlaced=0 / bluray_compat=0 / constrained_intra=0 / bframes=9 / b_pyramid=2 / b_adapt=2 / b_bias=0 / direct=3 / weightb=1 / open_gop=0 / weightp=2 / keyint=240 / keyint_min=24 / scenecut=40 / intra_refresh=0 / rc_lookahead=80 / rc=2pass / mbtree=0 / bitrate=5178 / ratetol=1.0 / qcomp=0.60 / qpmin=0 / qpmax=69 / qpstep=4 / cplxblur=20.0 / qblur=0.5 / vbv_maxrate=62500 / vbv_bufsize=78125 / nal_hrd=none / filler=0 / ip_ratio=1.40 / pb_ratio=1.30 / aq=2:0.70
Language : Danish
Default : Yes
Forced : No

Audio #1
ID : 2
Format : AC-3
Format/Info : Audio Coding 3
Mode extension : CM (complete main)
Format settings, Endianness : Big
Codec ID : A_AC3
Duration : 1h 47mn
Bit rate mode : Constant
Bit rate : 192 Kbps
Channel(s) : 2 channels
Channel positions : Front: L R
Sampling rate : 48.0 KHz
Bit depth : 16 bits
Compression mode : Lossy
Stream size : 148 MiB (3%)
Title : VO
Language : Russian
Default : Yes
Forced : No

Audio #2
ID : 3
Format : AC-3
Format/Info : Audio Coding 3
Mode extension : CM (complete main)
Format settings, Endianness : Big
Codec ID : A_AC3
Duration : 1h 47mn
Bit rate mode : Constant
Bit rate : 640 Kbps
Channel(s) : 6 channels
Channel positions : Front: L C R, Side: L R, LFE
Sampling rate : 48.0 KHz
Bit depth : 16 bits
Compression mode : Lossy
Stream size : 493 MiB (11%)
Language : Danish
Default : No
Forced : No

Text #1
ID : 4
Format : UTF-8
Codec ID : S_TEXT/UTF8
Codec ID/Info : UTF-8 Plain Text
Language : English
Default : No
Forced : No

Text #2
ID : 5
Format : UTF-8
Codec ID : S_TEXT/UTF8
Codec ID/Info : UTF-8 Plain Text
Title : aimenf
Language : Russian
Default : No
Forced : No

Text #3
ID : 6
Format : UTF-8
Codec ID : S_TEXT/UTF8
Codec ID/Info : UTF-8 Plain Text
Language : Danish
Default : No
Forced : No

Menu
00:00:00.000 : en:00:00:00.000
00:09:59.625 : en:00:09:59.625
00:19:59.958 : en:00:19:59.958
00:29:59.958 : en:00:29:59.958
00:39:59.875 : en:00:39:59.875
00:49:59.875 : en:00:49:59.875
00:59:59.833 : en:00:59:59.833
01:10:00.000 : en:01:10:00.000
01:19:59.708 : en:01:19:59.708
01:29:59.917 : en:01:29:59.917
01:39:59.583 : en:01:39:59.583

x

Не пропустите

2 Верник 2 [01-04] (2017) SATRip от Files-х

СКАЧАТЬ TORRENT ФАЙЛ Информация о фильме Оригинальное название: 2 Верник 2 Год выпуска: 2017 Жанр: ...